[ Сегодня идет свободное скачивание без начисления Download ]


Статистика раздачи
Нет
 
   
 
Top  
 
 
-Изгои из Бэйтауна / Прибрежное диско / The Baytown Outlaws (2012) BDRip
«A Southern Whip-Ass Extravaganza!»
- Русское название: Прибрежное диско
Оригинальное название: The Baytown Outlaws
Год выпуска: 2012
Жанр: Боевик, Комедия, Криминал
Перевод: Многоголосый закадровый любительский + двуголосый закадровый любительский
Автор перевода: MVO [ViruseProject] (Неормативная лексика), DVO [den904, DeadSno] перевод [Janetta]
Язык субтитров: Русский, Английский
Вид субтитров: Вшитые отключаемые-Дата мировой премьеры: 29 августа 2012-Режиссер: Бэрри Баттлс-Продюсеры: Билл Перкинс, Роберт Тейтел, Томас Дж. Буш-Актеры: Андре Брогер, Клейн Кроуфорд, Дэниэл Кадмор, Трэвис Фиммел, Ева Лонгория, Пол Уэсли, Билли Боб Торнтон, Томас Броди Сэнгстер, Зои Белл, Натали Мартинез-Описание фильма:
События развернутся вокруг трех братьев, которые всегда любили конфликты и хорошо подраться. Их нанимают для того, чтобы вернуть одной бабушке похищенного паренька-инвалида. Парни входят во вкус и проливают реки чужой крови, в основном похитителей.-
Продолжительность: 01:38:38
Качество видео: BDRip 720p [HDChina]
Видеокодек: MPEG-4 AVC/H.264
Битрейт видео: ~ 4865 Кбит/сек
Размер кадра: 1280 x 534 (2.397) at 23,976 fps : 0.297 Bits/Pixel
Аудиокодек: AC3 5.1 | DTS
Аудио #1: AC3 DTS 1510 Кбит/сек (6ch), 48,0 КГц, 24 бит [Русский, MVO ViruseProject]
Аудио #2: AC3 448 Кбит/сек (6ch), 48,0 КГц, 16 бит [Русский, DVO den904, DeadSno]
Аудио #3: DTS 1510 Кбит/сек (6ch), 48,0 КГц, 24 бит [Английский]
Релиз:

Трейлер / Ролик

[youtube]http://www.youtube.com/v/Ao0efxa8wbY&fs=1[/youtube]

MediaInfo:

Полное имя                               : F:\Фильмы\HD-BD\Прибрежное диско  The Baytown Outlaws [2012 г\Izgoi.iz.Bjejtauna 2012.720p.BDRip.720p.NNM-CLUB.mkv
Формат                                   : Matroska
Версия формата                           : Version 2
Размер файла                             : 5,74 Гбайт
Продолжительность                        : 1 ч. 38 м.
Общий поток                              : 8331 Кбит/сек
Название фильма                          : -=NNM-CLUB.RU=-
Дата кодирования                         : UTC 2013-01-05 19:40:02
Программа кодирования                    : mkvmerge v2.9.9 ('Tutu') built on Nov 25 2009 21:13:32
Библиотека кодирования                   : libebml v0.7.9 + libmatroska v0.8.1
Видео
Идентификатор                            : 1
Формат                                   : AVC
Формат/Информация                        : Advanced Video Codec
Профиль формата                          : [url=mailto:[email protected]][email protected][/url]
Параметр CABAC формата                   : Да
Параметр ReFrames формата                : 12 кадров
Идентификатор кодека                     : V_MPEG4/ISO/AVC
Битрейт                                  : 4865 Кбит/сек
Ширина                                   : 1280 пикселей
Высота                                   : 534 пикселя
Соотношение сторон                       : 2,40:1
Режим частоты кадров                     : Переменный
Частота кадров в оригинале               : 23,976 кадра/сек
Цветовое пространство                    : YUV
Субдискретизация насыщенности            : 4:2:0
Битовая глубина                          : 8 бит
Тип развёртки                            : Прогрессивная
Бит/(Пиксели*Кадры)                      : 0.297
Заголовок                                : Izgoi.iz.Bjejtauna 2012.BDRip.720p.NNM-CLUB
Библиотека кодирования                   : x264 core 129 r2230+696+36 4446aa2 tMod+MixAQ [[email protected]:2:0 X86_64]
Настройки программы                      : cabac=1 / ref=12 / deblock=1:-2:-2 / analyse=0x3:0x113 / me=umh / subme=10 / psy=1 / fade_compensate=0.00 / psy_rd=1.00:0.00 / mixed_ref=1 / me_range=32 / chroma_me=1 / trellis=2 / 8x8dct=1 / cqm=0 / deadzone=21,11 / fast_pskip=0 / chroma_qp_offset=-2 / threads=18 / lookahead_threads=3 / sliced_threads=0 / nr=0 / decimate=0 / interlaced=0 / bluray_compat=0 / constrained_intra=0 / fgo=0 / bframes=8 / b_pyramid=2 / b_adapt=2 / b_bias=0 / direct=3 / weightb=1 / open_gop=0 / weightp=2 / keyint=240 / keyint_min=24 / scenecut=40 / intra_refresh=0 / rc_lookahead=240 / rc=2pass / mbtree=1 / bitrate=4865 / ratetol=1.0 / qcomp=0.70 / qpmin=0 / qpmax=69 / qpstep=4 / cplxblur=20.0 / qblur=0.5 / ip_ratio=1.10 / aq=4 / aq-strength=0.95 / aq-sensitivity=10.00 / aq-ifactor=1.00 / aq-pfactor=1.00 / aq-bfactor=1.00 / aq2=0
Язык                                     : English
Default                                  : Нет
Forced                                   : Нет
Аудио #1
Идентификатор                            : 2
Формат                                   : DTS
Формат/Информация                        : Digital Theater Systems
Идентификатор кодека                     : A_DTS
Продолжительность                        : 1 ч. 38 м.
Вид битрейта                             : Постоянный
Битрейт                                  : 1510 Кбит/сек
Каналы                                   : 6 каналов
Расположение каналов                     : Front: L C R, Side: L R, LFE
Частота                                  : 48,0 КГц
Битовая глубина                          : 24 бит
Метод сжатия                             : С потерями
Задержка видео                           : 11 мс.
Размер потока                            : 1,04 Гбайт (18%)
Заголовок                                : DTS.1510.Kbps (6ch) Russian MVO ViruseProject
Язык                                     : Russian
Default                                  : Да
Forced                                   : Нет
Аудио #2
Идентификатор                            : 3
Формат                                   : AC-3
Формат/Информация                        : Audio Coding 3
Расширение режима                        : CM (complete main)
Параметр Endianness формата              : Big
Идентификатор кодека                     : A_AC3
Продолжительность                        : 1 ч. 38 м.
Вид битрейта                             : Постоянный
Битрейт                                  : 448 Кбит/сек
Каналы                                   : 6 каналов
Расположение каналов                     : Front: L C R, Side: L R, LFE
Частота                                  : 48,0 КГц
Битовая глубина                          : 16 бит
Метод сжатия                             : С потерями
Размер потока                            : 316 Мбайт (5%)
Заголовок                                : AC3.448.Kbps (6ch) Russian ([den904, DeadSno)
Язык                                     : Russian
Default                                  : Нет
Forced                                   : Нет
Аудио #3
Идентификатор                            : 4
Формат                                   : DTS
Формат/Информация                        : Digital Theater Systems
Идентификатор кодека                     : A_DTS
Продолжительность                        : 1 ч. 38 м.
Вид битрейта                             : Постоянный
Битрейт                                  : 1510 Кбит/сек
Каналы                                   : 6 каналов
Расположение каналов                     : Front: L C R, Side: L R, LFE
Частота                                  : 48,0 КГц
Битовая глубина                          : 24 бит
Метод сжатия                             : С потерями
Задержка видео                           : 11 мс.
Размер потока                            : 1,04 Гбайт (18%)
Заголовок                                : DTS.1510.Kbps (6ch) English
Язык                                     : English
Default                                  : Нет
Forced                                   : Нет
Текст #1
Идентификатор                            : 5
Формат                                   : UTF-8
Идентификатор кодека                     : S_TEXT/UTF8
Идентификатор кодека/Информация          : UTF-8 Plain Text
Заголовок                                : Russian (Full) (Федор Погорелов)
Язык                                     : Russian
Default                                  : Да
Forced                                   : Нет
Текст #2
Идентификатор                            : 6
Формат                                   : UTF-8
Идентификатор кодека                     : S_TEXT/UTF8
Идентификатор кодека/Информация          : UTF-8 Plain Text
Заголовок                                : English (Full)
Язык                                     : English
Default                                  : Нет
Forced                                   : Нет
Скриншоты:




[Цитировать]



Показать сообщения:    

Текущее время: 06-Дек 13:16

Часовой пояс: UTC + 3


Вы не можете начинать темы
Вы не можете отвечать на сообщения
Вы не можете редактировать свои сообщения
Вы не можете удалять свои сообщения
Вы не можете голосовать в опросах
Вы не можете прикреплять файлы к сообщениям
Вы не можете скачивать файлы

!ВНИМАНИЕ!
Сайт не предоставляет электронные версии произведений, а занимается лишь коллекционированием и каталогизацией ссылок, присылаемых и публикуемых на форуме нашими читателями. Если вы являетесь правообладателем какого-либо представленного материала и не желаете, чтобы ссылка на него находилась в нашем каталоге, свяжитесь с нами, и мы незамедлительно удалим ее. Файлы для обмена на трекере предоставлены пользователями сайта, и администрация не несет ответственности за их содержание. Просьба не заливать файлы, защищенные авторскими правами, а также файлы нелегального содержания!