[ Сегодня идет свободное скачивание без начисления Download ]


Статистика раздачи
Качаю: [ 4 ]
Скачал: [ 6 ]
 
   
 
Top  
 
 
Квантовый разлом / Quantum Break (2016) Оригинальное название: Quantum Break
Год выпуска: 2016 г.
Разработчик игры: Remedy Entertainment (Финляндия)
Создатель видео: GamingWalkDi
Жанр: Игрофильм
Продолжительность: 06:38:05-Перевод: Дублированный [Официальный]
Субтитры: Русский хардсаб [Экранные надписи и тп.]-Режиссер: Стобе Харью
В ролях: Шон Эшмор, Эйдан Гиллен, Доминик Монахэн, Лэнс Реддик, Кортни Хоуп, Патрик Хьюсингер, Амелия Роуз Блэйр, Шон Дурри и др.-Описание:
Северо-Восточный Университет США Riverport, где эксперимент со временем прошёл крайне неудачно, и теперь все 3 главных персонажа игры — Джек Джойс (Шон Эшмор), Бет Уайлдер (Кортни Хоуп) и Пол Сайрин (Эйдан Гиллен), получили необычные способности. Например, Пол Серин обладает сверхспособностью, позволяющей видеть иные варианты развития событий и альтернативное будущее, а Джек и Бет могут останавливать время.
Дополнительная информация:
Данное видео позиционируется как ИГРОФИЛЬМ (без комментариев). В игрофильме присутствуют все катсцены, весь геймплей и весь live-action сериал из игры.
-Качество: WEBRip 1080p | 60 fps
Формат: MP4
Видео: MPEG-4 AVC Video (H.264) / 1920х1080 / 4419 kbps / 59.940 fps
Аудио: AAC, 2 channels, 44.1 kHz, 128 kbps-

MediaInfo

General
Complete name : Quantum.Break.2016.D.WEBRip.1080p.60fps.mp4
Format : MPEG-4
Format profile : Base Media
Codec ID : isom
File size : 12.7 GiB
Duration : 6h 38mn
Overall bit rate : 4 563 Kbps
Writing application : Lavf57.34.102
Video
ID : 1
Format : AVC
Format/Info : Advanced Video Codec
Format profile : High@L4.2
Format settings, CABAC : Yes
Format settings, ReFrames : 2 frames
Codec ID : avc1
Codec ID/Info : Advanced Video Coding
Duration : 6h 38mn
Bit rate : 4 419 Kbps
Width : 1 920 pixels
Height : 1 080 pixels
Display aspect ratio : 16:9
Frame rate mode : Variable
Frame rate : 59.940 fps
Minimum frame rate : 59.920 fps
Maximum frame rate : 59.960 fps
Color space : YUV
Chroma subsampling : 4:2:0
Bit depth : 8 bits
Scan type : Progressive
Bits/(Pixel*Frame) : 0.036
Stream size : 12.3 GiB (97%)
Audio
ID : 2
Format : AAC
Format/Info : Advanced Audio Codec
Format profile : LC
Codec ID : 40
Duration : 6h 38mn
Bit rate mode : Constant
Bit rate : 126 Kbps
Channel(s) : 2 channels
Channel positions : Front: L R
Sampling rate : 44.1 KHz
Compression mode : Lossy
Stream size : 358 MiB (3%)
-

Скриншоты




-

Еще скриншоты




[Цитировать]



Показать сообщения:    

Текущее время: 08-Дек 10:55

Часовой пояс: UTC + 3


Вы не можете начинать темы
Вы не можете отвечать на сообщения
Вы не можете редактировать свои сообщения
Вы не можете удалять свои сообщения
Вы не можете голосовать в опросах
Вы не можете прикреплять файлы к сообщениям
Вы не можете скачивать файлы

!ВНИМАНИЕ!
Сайт не предоставляет электронные версии произведений, а занимается лишь коллекционированием и каталогизацией ссылок, присылаемых и публикуемых на форуме нашими читателями. Если вы являетесь правообладателем какого-либо представленного материала и не желаете, чтобы ссылка на него находилась в нашем каталоге, свяжитесь с нами, и мы незамедлительно удалим ее. Файлы для обмена на трекере предоставлены пользователями сайта, и администрация не несет ответственности за их содержание. Просьба не заливать файлы, защищенные авторскими правами, а также файлы нелегального содержания!