[ Сегодня идет свободное скачивание без начисления Download ]


Статистика раздачи
Нет
 
   
 
Top  
 
 
-Контроль / Kontroll (2003) [720p] BDRip - Русское название: Контроль
Оригинальное название: Control / Kontroll
Выпущено: Венгрия
Год выпуска: 2003
Жанр: триллер, драма, мелодрама, комедия, криминал
Режиссер: Нимрод Антал
Актеры: Шандор Чани, Золтан Мучи, Саба Пиндроч, Сандор Бадар, Золт Наги, Эстер Балла, Лайош Ковач, Bence Mбtyбssy, Дьезе Сабо, Питер Шерер
Описание фильма:
Сюрреалистически-мистическая драма, действия которой происходят в венгерском метро, а главный герой - Бульцу, работает там контролером. В метро он проводит все свое время, работает и спит, по непонятным причинам он изолировал себя от внешнего мира. Но, однажды среди пассажиров он встречает ту, которая все изменит....
Продолжительность: 1:46:14
Перевод: Одноголосый закадровый
- -Качество видео: BDRip
Видеокодек: MPEG-4 AVC Video
Аудиокодек: AC-3, DTS
Bидео: 1280х720 at 23.976 fps, crf, ~12,6 Mb/s
Аудио# 1: Русский: AC-3, 3/2 ch, ~ 384 kb/s |Одноголосый, А.Алексеев|
Аудио# 2: Венгерский: DTS, 3/2 ch, ~ 768 kb/s

Субтитры: Русские- Приз молодежного жюри на Каннском кинофестивале, 2004 г.

Знаете ли вы, что...

• Фильм «Контроль» приходилось снимать по ночам, в промежутке с 23,30 до 4,30 утра, когда не ходят поезда. Кроме того, очень много времени ушло на получение разрешения. Во всех инстанциях, в которые обращалась съёмочная группа, им отвечали, что никогда не дадут разрешения снимать фильм, в котором билетные контролёры показаны бандой придурков. В конце концов продюсер картины Тамаш Хутласса и Нимрод Анталь встретились с директором будапештской компании общественного транспорта Ботондом Абой, которого они убедили дать разрешение на съёмки. Фильм предваряет записанное Ботондом Абой обращение, в котором он говорит, что персонажи фильма не имеют ничего общего с реальными контролёрами будапештской подземки.
• Персонаж Жолта Наги (Тиби) в одной из сцен нечаянно врезается головой в колонну. В сценарии этого не было, но Анталю понравилось, и он оставил этот дубль в фильме.
• Жабор Херенди, который играет врача скорой помощи, собирающего с рельсов остатки человека — известный венгерский кинорежиссёр.
• Это первый венгерский фильм, отобранный для официального показа на Каннском кинофестивале после двадцатилетнего перерыва.
• Жабор Пирош, известный венгерский каскадёр, на два дня уехал со съёмочной площадки «Терминатора 3», чтобы помочь Анталю на съёмках «Контроля».
• В конце «побегушек» между Бульчу и Гонзо, когда последнего почти догоняет поезд, использовались каскадёры. Никаких визуальных эффектов в этой сцене не использовали.
• Некоторые голосовые эффекты в музыке во время финальных титров исполнялись самим режиссёром.
• В двух местах в фильме на заднем фоне слышно механических голос, говорящий (по-английски) «The next stop is: Concourse A… the color coded maps and signs in this vehicle match the station colors… please move to the center of the vehicle and away from the doors.» Это фразы, которые произносил робот в бесплатной подземке аэропорта Атланты (до 1994 года).

MediaInfo:

Формат : Matroska
Версия формата : Version 4 / Version 2
Размер файла : 10,4 Гбайт
Продолжительность : 1 ч. 46 м.
Общий поток : 14,0 Мбит/сек
Дата кодирования : UTC 2010-02-22 21:41:31
Программа кодирования : mkvmerge v5.9.0 ('On The Loose') built on Dec 9 2012 15:37:01
Библиотека кодирования : libebml v1.3.0 + libmatroska v1.4.0
Видео
Идентификатор : 1
Формат : AVC
Формат/Информация : Advanced Video Codec
Профиль формата : High@L4.1
Параметр CABAC формата : Да
Параметр ReFrames формата : 8 кадров
Идентификатор кодека : V_MPEG4/ISO/AVC
Продолжительность : 1 ч. 46 м.
Битрейт : 12,6 Мбит/сек
Ширина : 1280 пикселей
Высота : 720 пикселей
Соотношение сторон : 16:9
Режим частоты кадров : Постоянный
Частота кадров : 25,000 кадров/сек
Цветовое пространство : YUV
Субдискретизация насыщенности : 4:2:0
Битовая глубина : 8 бит
Тип развёртки : Прогрессивная
Бит/(Пиксели*Кадры) : 0.545
Размер потока : 9,32 Гбайт (90%)
Заголовок : Контроль / Kontroll
Библиотека кодирования : x264 core 129 r2230 1cffe9f
Настройки программы : cabac=1 / ref=8 / deblock=1:-2:-2 / analyse=0x3:0x113 / me=umh / subme=11 / psy=1 / psy_rd=0.95:0.10 / mixed_ref=1 / me_range=32 / chroma_me=1 / trellis=2 / 8x8dct=1 / cqm=0 / deadzone=21,11 / fast_pskip=0 / chroma_qp_offset=-3 / threads=12 / lookahead_threads=2 / sliced_threads=0 / nr=0 / decimate=1 / interlaced=0 / bluray_compat=0 / constrained_intra=0 / bframes=8 / b_pyramid=2 / b_adapt=2 / b_bias=0 / direct=1 / weightb=1 / open_gop=0 / weightp=2 / keyint=250 / keyint_min=25 / scenecut=40 / intra_refresh=0 / rc=crf / mbtree=0 / crf=18.5 / qcomp=0.70 / qpmin=0 / qpmax=69 / qpstep=4 / ip_ratio=1.40 / pb_ratio=1.30 / aq=2:0.80
Язык : Hungarian
Default : Да
Forced : Нет
Основные цвета : BT.709
Характеристики трансфера : BT.709
Коэффициенты матрицы : BT.709
Аудио #1
Идентификатор : 2
Формат : AC-3
Формат/Информация : Audio Coding 3
Расширение режима : CM (complete main)
Параметр Endianness формата : Big
Идентификатор кодека : A_AC3
Продолжительность : 1 ч. 46 м.
Вид битрейта : Постоянный
Битрейт : 384 Кбит/сек
Каналы : 6 каналов
Расположение каналов : Front: L C R, Side: L R, LFE
Частота : 48,0 КГц
Битовая глубина : 16 бит
Метод сжатия : С потерями
Размер потока : 292 Мбайт (3%)
Заголовок : Одноголосый закадровый, А. Алексеев, AC-3 384 Kbps 5/1
Язык : Russian
Default : Да
Forced : Нет
Аудио #2
Идентификатор : 3
Формат : DTS
Формат/Информация : Digital Theater Systems
Режим : 16
Параметр Endianness формата : Big
Идентификатор кодека : A_DTS
Продолжительность : 1 ч. 46 м.
Вид битрейта : Постоянный
Битрейт : 755 Кбит/сек
Каналы : 6 каналов
Расположение каналов : Front: L C R, Side: L R, LFE
Частота : 48,0 КГц
Битовая глубина : 24 бит
Метод сжатия : С потерями
Размер потока : 573 Мбайт (5%)
Заголовок : Венгерский оригинал, DTS 48/24 768 Kbps 5/1
Язык : Hungarian
Default : Нет
Forced : Нет
Текст
Идентификатор : 4
Формат : UTF-8
Идентификатор кодека : S_TEXT/UTF8
Идентификатор кодека/Информация : UTF-8 Plain Text
Заголовок : Субтитры
Язык : Russian
Default : Нет
Forced : Нет
Меню
00:00:00.000 : hu:Chapter 01
00:05:00.000 : hu:Chapter 02
00:10:00.000 : hu:Chapter 03
00:15:00.000 : hu:Chapter 04
00:20:00.000 : hu:Chapter 05
00:25:00.000 : hu:Chapter 06
00:30:00.000 : hu:Chapter 07
00:35:00.000 : hu:Chapter 08
00:40:00.000 : hu:Chapter 09
00:45:00.000 : hu:Chapter 10
00:50:00.000 : hu:Chapter 11
00:55:00.000 : hu:Chapter 12
01:00:00.000 : hu:Chapter 13
01:05:00.000 : hu:Chapter 14
01:10:00.000 : hu:Chapter 15
01:15:00.000 : hu:Chapter 16
01:20:00.000 : hu:Chapter 17
01:25:00.000 : hu:Chapter 18
01:30:00.000 : hu:Chapter 19
01:35:00.000 : hu:Chapter 20
01:40:00.000 : hu:Chapter 21
01:45:00.000 : hu:Chapter 22
Скриншоты:

Время раздачи: До первых 10 скачавших

[Цитировать]



Показать сообщения:    

Текущее время: 09-Дек 06:44

Часовой пояс: UTC + 3


Вы не можете начинать темы
Вы не можете отвечать на сообщения
Вы не можете редактировать свои сообщения
Вы не можете удалять свои сообщения
Вы не можете голосовать в опросах
Вы не можете прикреплять файлы к сообщениям
Вы не можете скачивать файлы

!ВНИМАНИЕ!
Сайт не предоставляет электронные версии произведений, а занимается лишь коллекционированием и каталогизацией ссылок, присылаемых и публикуемых на форуме нашими читателями. Если вы являетесь правообладателем какого-либо представленного материала и не желаете, чтобы ссылка на него находилась в нашем каталоге, свяжитесь с нами, и мы незамедлительно удалим ее. Файлы для обмена на трекере предоставлены пользователями сайта, и администрация не несет ответственности за их содержание. Просьба не заливать файлы, защищенные авторскими правами, а также файлы нелегального содержания!