[ Сегодня идет свободное скачивание без начисления Download ]


Статистика раздачи
Нет
 
   
 
Top  
 
 
-Филадельфийский эксперимент / The Philadelphia Experiment (2012) BDRip- Русское название: Филадельфийский эксперимент
Оригинальное название: The Philadelphia Experiment
Год выпуска: 2012
Жанр: Фантастика, Триллер, Детектив
Описание фильма:
Целью секретного правительственного исследования является создание оборудования по повторению, так называемого, «Филадельфийского эксперимента» Второй мировой войны, который позволял делать невидимыми военные корабли. Успешно проведенный в наши дни эксперимент возвращает ранее исчезнувший в 1943г. эсминец «Элдридж». Но он приносит в 21 век только смерть и разрушения. Единственный оставшийся в живых после первого эксперимента Леа и его внучка, пытаются остановить это безумие.
Режиссер: Пол Зиллер
Актеры: Николас Лиа, Райан Роббинс, Джина Холден, Лауро Чартрэнд, Эллисон Хоссак, Чад Кровчук, Том МакБет, Малкольм МакДауэлл, Майкл Паре, Марк Поусон, Джон Рирдон, Дин Редман, Марша Режис, Эмили Уллерап
Продолжительность: 01:28:53
Перевод: Одноголосый закадровый

Видеокодек: MPEG-4 AVC/H.264
Битрейт видео: ~9932 Кбит/с
Размер кадра: 1920x1080
Качество видео: BDRip (1080p)
Аудио1: AC3 6ch, 48kHz, 384kbps, русский (закадровый)
Аудио2: DTS 6ch, 48kHz, 768kbps, английский (оригинал)

MediaInfo

Общее
Уникальный идентификатор : 178812322472754568264562744912667854829 (0x8686002920E2A3D98D7DDF7B3ED9C7ED)
Полное имя : Filadel'fijskij jeksperiment.2012.L1.BDRip.1080p.Rus.Eng.Goliaf.mkv
Формат : Matroska
Версия формата : Version 2
Размер файла : 6,88 Гбайт
Продолжительность : 1 ч. 28 м.
Общий поток : 11,1 Мбит/сек
Дата кодирования : UTC 2012-12-26 11:55:44
Программа кодирования : mkvmerge v3.0.0 ('Hang up your Hang-Ups') built on Dec 12 2009 15:20:35
Библиотека кодирования : libebml v0.7.9 + libmatroska v0.8.1
Видео
Идентификатор : 1
Формат : AVC
Формат/Информация : Advanced Video Codec
Профиль формата : High@L4.1
Параметр CABAC формата : Да
Параметр ReFrames формата : 4 кадра
Идентификатор кодека : V_MPEG4/ISO/AVC
Продолжительность : 1 ч. 28 м.
Битрейт : 9932 Кбит/сек
Ширина : 1920 пикселей
Высота : 1080 пикселей
Соотношение сторон : 16:9
Режим частоты кадров : Постоянный
Частота кадров : 23,976 кадра/сек
Цветовое пространство : YUV
Субдискретизация насыщенности : 4:2:0
Битовая глубина : 8 бит
Тип развёртки : Прогрессивная
Бит/(Пиксели*Кадры) : 0.200
Размер потока : 6,02 Гбайт (88%)
Заголовок : Goliaf.tv
Библиотека кодирования : x264 core 129 r2230 1cffe9f
Настройки программы : cabac=1 / ref=4 / deblock=1:-3:-3 / analyse=0x3:0x133 / me=umh / subme=10 / psy=1 / psy_rd=1.00:0.10 / mixed_ref=1 / me_range=64 / chroma_me=1 / trellis=2 / 8x8dct=1 / cqm=0 / deadzone=21,11 / fast_pskip=0 / chroma_qp_offset=-3 / threads=12 / lookahead_threads=2 / sliced_threads=0 / nr=0 / decimate=0 / interlaced=0 / bluray_compat=0 / constrained_intra=0 / bframes=8 / b_pyramid=2 / b_adapt=2 / b_bias=0 / direct=3 / weightb=1 / open_gop=0 / weightp=2 / keyint=360 / keyint_min=2 / scenecut=40 / intra_refresh=0 / rc_lookahead=60 / rc=2pass / mbtree=1 / bitrate=9932 / ratetol=1.0 / qcomp=0.70 / qpmin=0 / qpmax=69 / qpstep=4 / cplxblur=20.0 / qblur=0.5 / vbv_maxrate=50000 / vbv_bufsize=45000 / nal_hrd=none / ip_ratio=1.10 / aq=2:1.00
Язык : English
Default : Нет
Forced : Нет
Аудио #1
Идентификатор : 2
Формат : AC-3
Формат/Информация : Audio Coding 3
Расширение режима : CM (complete main)
Параметр Endianness формата : Big
Идентификатор кодека : A_AC3
Продолжительность : 1 ч. 28 м.
Вид битрейта : Постоянный
Битрейт : 384 Кбит/сек
Каналы : 6 каналов
Расположение каналов : Front: L C R, Side: L R, LFE
Частота : 48,0 КГц
Битовая глубина : 16 бит
Метод сжатия : С потерями
Размер потока : 244 Мбайт (3%)
Язык : Russian
Default : Да
Forced : Нет
Аудио #2
Идентификатор : 3
Формат : DTS
Формат/Информация : Digital Theater Systems
Режим : 16
Параметр Endianness формата : Big
Идентификатор кодека : A_DTS
Продолжительность : 1 ч. 28 м.
Вид битрейта : Постоянный
Битрейт : 768 Кбит/сек
Каналы : 6 каналов
Расположение каналов : Front: L C R, Side: L R, LFE
Частота : 48,0 КГц
Битовая глубина : 16 бит
Метод сжатия : С потерями
Размер потока : 488 Мбайт (7%)
Язык : English
Default : Нет
Forced : Нет
Скриншоты: Время раздачи: 16:00-24:00

[Цитировать]



Показать сообщения:    

Текущее время: 10-Дек 13:43

Часовой пояс: UTC + 3


Вы не можете начинать темы
Вы не можете отвечать на сообщения
Вы не можете редактировать свои сообщения
Вы не можете удалять свои сообщения
Вы не можете голосовать в опросах
Вы не можете прикреплять файлы к сообщениям
Вы не можете скачивать файлы

!ВНИМАНИЕ!
Сайт не предоставляет электронные версии произведений, а занимается лишь коллекционированием и каталогизацией ссылок, присылаемых и публикуемых на форуме нашими читателями. Если вы являетесь правообладателем какого-либо представленного материала и не желаете, чтобы ссылка на него находилась в нашем каталоге, свяжитесь с нами, и мы незамедлительно удалим ее. Файлы для обмена на трекере предоставлены пользователями сайта, и администрация не несет ответственности за их содержание. Просьба не заливать файлы, защищенные авторскими правами, а также файлы нелегального содержания!