[ Сегодня идет свободное скачивание без начисления Download ]


Статистика раздачи
Качаю: [ 2 ]
Скачал: [ 3 ]
 
   
 
Top  
 
 
Сало, или 120 дней содома / Salo o le 120 giornate di Sodoma Информация о фильме
Название: Сало, или 120 дней содома
Оригинальное название: Salo o le 120 giornate di Sodoma
Год выхода: 1975
Жанр: драма, военный
Режиссер: Пьер Паоло Пазолини
В ролях: Паоло Боначелли, Джорджио Катальди, Альдо Валлетти, Умберто Паоло Квинтовалле, Катерина Боратто, Эльза Де Джиорджи, Хелене Сургере, Соня Савьянж
Описание: Экранизируя роман маркиза де Сада, Пазолини переносит действие в 1944-45-е годы, в фашистскую «республику Сало» на севере Италии, где группа лиц из высшего общества во главе с принцем унижает, издевается, мучает, пытает юношей и девушек, собранных для услаждения извращённой элиты, чувствующей свою погибель. Четыре месяца длится эта экзекуция. Для взрослых это последняя возможность удовлетворить свои низменные инстинкты, для молодых людей — расплата за свою юность и желание жить.

Страна: Италия, Франция
Продолжительность: 01:56:43
Перевод: Перевод: Профессиональный (многоголосый закадровый) R5
Перевод: Профессиональный (многоголосый, закадровый) С.Р.И
Перевод: Авторский (одноголосый, закадровый) С.Кузнецов
Cубтитры: английские, русские
Оригинальная аудиодорожка: итальянский
Файл
Качество: BDRemux 1080p
Видео: MPEG-4 AVC Video 25996 kbps 1080p / 23.976 fps / 16:9 / High Profile 4.1
Аудио 1: Dolby Digital Audio Russian 2.0 / 48 kHz / 192 kbps |Многолосый закадровый, R5|
Аудио 2: Dolby Digital Audio Russian 2.0 / 48 kHz / 192 kbps |Многолосый закадровый, С.Р.И|
Аудио 3: Russian / DTS-HD Master Audio / 1.0 / 48 kHz / 697 kbps / 24-bit (DTS Core: 1.0 / 48 kHz / 255 kbps / 24-bit) |Одноголосый закадровый, С.Кузнецов|
Аудио 4: Italian / DTS-HD Master Audio / 1.0 / 48 kHz / 663 kbps / 24-bit (DTS Core: 1.0 / 48 kHz / 255 kbps / 24-bit)
Аудио 5: Dolby Digital Audio English 1.0 / 48 kHz / 192 kbps

Скриншоты

MediaInfo

General
Complete name : Сало, или 120 дней содома (1975. Salo o le 120 giornate di Sodoma).mkv
Format : Matroska
File size : 22.7 GiB
Duration : 1h 56mn
Overall bit rate : 27.9 Mbps
Encoded date : UTC 2012-11-25 21:57:22
Writing application : mkvmerge v4.9.1 ('Ich will') сборка от Jul 11 2011 23:53:15
Writing library : libebml v1.2.1 + libmatroska v1.1.1
Video
ID : 1
Format : AVC
Format/Info : Advanced Video Codec
Format profile : [email protected]
Format settings, CABAC : Yes
Format settings, ReFrames : 4 frames
Muxing mode : Container [email protected]
Codec ID : V_MPEG4/ISO/AVC
Duration : 1h 56mn
Bit rate mode : Variable
Maximum bit rate : 37.0 Mbps
Width : 1 920 pixels
Height : 1 080 pixels
Display aspect ratio : 16:9
Frame rate : 23.976 fps
Color space : YUV
Chroma subsampling : 4:2:0
Bit depth : 8 bits
Scan type : Progressive
Title : Salò o le 120 giornate di Sodoma 1975 1080p ITA Blu-ray AVC LPCM 1.0-CHDBits
Language : Italian
Audio #1
ID : 2
Format : AC-3
Format/Info : Audio Coding 3
Mode extension : CM (complete main)
Codec ID : A_AC3
Duration : 1h 56mn
Bit rate mode : Constant
Bit rate : 192 Kbps
Channel(s) : 2 channels
Channel positions : Front: L R
Sampling rate : 48.0 KHz
Bit depth : 16 bits
Stream size : 160 MiB (1%)
Title : MVO [R5]
Language : Russian
Audio #2
ID : 3
Format : AC-3
Format/Info : Audio Coding 3
Mode extension : CM (complete main)
Codec ID : A_AC3
Duration : 1h 56mn
Bit rate mode : Constant
Bit rate : 192 Kbps
Channel(s) : 2 channels
Channel positions : Front: L R
Sampling rate : 48.0 KHz
Bit depth : 16 bits
Stream size : 160 MiB (1%)
Title : MVO [С.Р.И]
Language : Russian
Audio #3
ID : 4
Format : DTS
Format/Info : Digital Theater Systems
Format profile : MA
Codec ID : A_DTS
Duration : 1h 56mn
Bit rate mode : Variable
Channel(s) : 1 channel
Channel positions : Front: C
Sampling rate : 48.0 KHz
Bit depth : 24 bits
Title : AVO [С.Кузнецов]
Language : Russian
Audio #4
ID : 5
Format : DTS
Format/Info : Digital Theater Systems
Format profile : MA
Codec ID : A_DTS
Duration : 1h 56mn
Bit rate mode : Variable
Channel(s) : 1 channel
Channel positions : Front: C
Sampling rate : 48.0 KHz
Bit depth : 24 bits
Title : Original
Language : Italian
Audio #5
ID : 6
Format : AC-3
Format/Info : Audio Coding 3
Mode extension : CM (complete main)
Codec ID : A_AC3
Duration : 1h 56mn
Bit rate mode : Constant
Bit rate : 192 Kbps
Channel(s) : 1 channel
Channel positions : Front: C
Sampling rate : 48.0 KHz
Bit depth : 16 bits
Stream size : 160 MiB (1%)
Title : Dub
Language : English
Text #1
ID : 7
Format : UTF-8
Codec ID : S_TEXT/UTF8
Codec ID/Info : UTF-8 Plain Text
Language : Russian
Text #2
ID : 8
Format : UTF-8
Codec ID : S_TEXT/UTF8
Codec ID/Info : UTF-8 Plain Text
Language : English
Menu
00:00:00.000 : en:00:00:00.000
00:04:44.701 : en:00:04:44.701
00:09:11.551 : en:00:09:11.551
00:13:41.654 : en:00:13:41.654
00:19:57.571 : en:00:19:57.571
00:23:29.741 : en:00:23:29.741
00:28:34.129 : en:00:28:34.129
00:33:40.101 : en:00:33:40.101
00:39:59.688 : en:00:39:59.688
00:43:58.552 : en:00:43:58.552
00:47:01.944 : en:00:47:01.944
00:54:01.279 : en:00:54:01.279
00:56:51.199 : en:00:56:51.199
01:05:01.522 : en:01:05:01.522
01:09:38.424 : en:01:09:38.424
01:15:36.323 : en:01:15:36.323
01:21:17.205 : en:01:21:17.205
01:27:05.011 : en:01:27:05.011
01:33:15.464 : en:01:33:15.464
01:36:44.632 : en:01:36:44.632
01:40:31.233 : en:01:40:31.233
01:46:31.760 : en:01:46:31.760
01:49:19.761 : en:01:49:19.761
Внимание: Фильм не рекомендован к просмотру лицам до 18 лет, пожилым людям, беременным женщинам и людям с психическими отклонениями. В фильме неоднократно фигурируют действия, выходящие за рамки, так называемых, общепринятых норм морали и приличия. Если вы не уверены, что хотите это видеть - не качайте и не смотрите.

[Цитировать]

Топик был перенесен из форума Зарубежное кино (HD Video) в форум Зарубежные фильмы
Scorpio



Показать сообщения:    

Текущее время: 06-Дек 19:04

Часовой пояс: UTC + 3


Вы не можете начинать темы
Вы не можете отвечать на сообщения
Вы не можете редактировать свои сообщения
Вы не можете удалять свои сообщения
Вы не можете голосовать в опросах
Вы не можете прикреплять файлы к сообщениям
Вы не можете скачивать файлы

!ВНИМАНИЕ!
Сайт не предоставляет электронные версии произведений, а занимается лишь коллекционированием и каталогизацией ссылок, присылаемых и публикуемых на форуме нашими читателями. Если вы являетесь правообладателем какого-либо представленного материала и не желаете, чтобы ссылка на него находилась в нашем каталоге, свяжитесь с нами, и мы незамедлительно удалим ее. Файлы для обмена на трекере предоставлены пользователями сайта, и администрация не несет ответственности за их содержание. Просьба не заливать файлы, защищенные авторскими правами, а также файлы нелегального содержания!