[ Today is free to download without increasing Download ]

DL-List and Torrent activity
Complete: [ 1 ]
Русский счет (1994) DVDRip Информация о фильме
Название: Русский счет
Год выхода: 1994
Жанр: Комедия
Режиссёр: Михаил Кокшенов
В ролях: Михаил Кокшенов, Виктор Ильичев, Леонид Куравлев, Наталья Крачковская, Наталья Харахорина, Валерий Носик, Руслан Волконский, Игорь Сивовол, Алена Лисовская, Наталья Гончарова
О фильме: Опасные рецидивисты Шкаф и Штопор прибывают в Дагомыс с целью похищения президента концерна ЖЖЖ Зуева Р. П. Начальник уголовного розыска майор Сидоров Иван готовится достойно встретить гастролеров...

Страна: Россия
Студия: Рубиз, Союз Интернейшнл
Продолжительность: 01:27:34
Перевод: Не требуется (оригинальный)
Формат: avi
Качество: DVDRip (DVD5)
Видео: XviD, 624х480, 25fps, 1054kbps
Аудио: MPEG Layer 3, 2ch, 48000Hz, 128kbps


Complete name : Russkii.Schet.1994.O.DVDRip.700.CurHaJI.avi
Format : AVI
Format/Info : Audio Video Interleave
File size : 746 MiB
Duration : 1h 27mn
Overall bit rate : 1 192 Kbps
Movie name : Russkii.Schet.1994.O.DVDRip.700.CurHaJI
Writing application : VirtualDubMod | www.virtualdub-fr.org || (build 2550/release)
Writing library : VirtualDub build 35491/release
ID : 0
Format : MPEG-4 Visual
Format profile : Advanced Simple@L5
Format settings, BVOP : 2
Format settings, QPel : No
Format settings, GMC : No warppoints
Format settings, Matrix : Custom
Codec ID : XVID
Codec ID/Hint : XviD
Duration : 1h 27mn
Bit rate : 1 054 Kbps
Width : 624 pixels
Height : 480 pixels
Display aspect ratio : 4:3
Frame rate : 25.000 fps
Color space : YUV
Chroma subsampling : 4:2:0
Bit depth : 8 bits
Scan type : Progressive
Compression mode : Lossy
Bits/(Pixel*Frame) : 0.141
Stream size : 660 MiB (88%)
Writing library : XviD 73
ID : 1
Format : MPEG Audio
Format version : Version 1
Format profile : Layer 3
Codec ID : 55
Codec ID/Hint : MP3
Duration : 1h 27mn
Bit rate mode : Constant
Bit rate : 128 Kbps
Channel(s) : 2 channels
Sampling rate : 48.0 KHz
Compression mode : Lossy
Stream size : 80.2 MiB (11%)
Alignment : Aligned on interleaves
Interleave, duration : 40 ms (1.00 video frame)
Interleave, preload duration : 504 ms



Display posts:    

Current time is: 23-Oct 19:15

All times are UTC + 3

You cannot post new topics in this forum
You cannot reply to topics in this forum
You cannot edit your posts in this forum
You cannot delete your posts in this forum
You cannot vote in polls in this forum
You cannot attach files in this forum
You cannot download files in this forum

The site does not give electronic versions of products, and is engaged only in a collecting and cataloguing of the references sent and published at a forum by our readers. If you are the legal owner of any submitted material and do not wish that the reference to it was in our catalogue, contact us and we shall immediately remove her. Files for an exchange on tracker are given by users of a site, and the administration does not bear the responsibility for their maintenance. The request to not fill in the files protected by copyrights, and also files of the illegal maintenance!