[ Сегодня идет свободное скачивание без начисления Download ]


Статистика раздачи
Нет
 
   
 
Top  
 
 
-Папаша / Starbuck (2011) [1080p] BDRip-«Поздравляем! Вы отец... 533 детей!» - Русское название: Папаша
Оригинальное название: Starbuck
Выпущено: Канада, Caramel Film
Год выпуска: 2011
Жанр: Комедия
Перевод: Многоголосый закадровый
Описание фильма:
Жизнь Давида сплошная полоса неудач. Вечные проблемы с работой, с долгами, а теперь еще и с любимой женщиной, которая ждет ребенка, но отказывается признать тот факт, что Давид сможет быть хорошим отцом. Да, кстати, когда-то в молодости он сдавал свой биологический материал в банк спермы и теперь неожиданно оказалось, что у него 533 ребенка. И 142 из них захотели познакомиться с папочкой.. Ну и что ему теперь делать?
Режиссер: Кен Скотт
Актеры: Патрик Уард, Джули Лебретон, Антуан Бертран, Доминик Фили, Марк Беланже, Игорь Овадис, Дэвид Майкл, Патрик Мартин, Давид Жигер, Сара-Джинн Лабросс
Продолжительность: 01:49:00
- -Качество видео: BDRip
Видеокодек: MPEG-4 / AVC
Аудиокодек: AC-3
Bидео: ~14,4 Mb/s, ~1920x816, 23,976 fps

Аудио# 1: Русский: AC-3, 3/2 ch, ~ 448 kb/s |Многоголосый, закадровый|
Аудио# 2: Французский: AC-3, 3/2 ch, ~640 kb/s
Субтитры: Русские, Английские

Знаете ли вы, что...

Оригинальное название фильма происходит от имени знаменитого канадского племенного быка голштинской породы Старбак, который в 80-е и 90-е годы с помощью искусственного осеменения стал отцом более чем двухсот тысяч элитных телят.
Фильм собрал свыше 3 миллионов долларов в канадской франкоязычной провинции Квебек, став там самым кассовым локальным релизом 2011 года.
Режиссёр Кен Скотт был очень сильно впечатлён песнью одного из юных актёров на пробах. В результате он не только дал ему роль, но и включил эту самую песню в фильм, где она звучит несколько раз.
Для большинства молодых актёров, сыгравших детей Дэвида Возняка, эти роли стали дебютом в кино.
Первоначально Кен Скотт и Мартин Пети писали сценарий о человеке, ставшем отцом 150 детей. Они посчитали, что такое вряд ли возможно на практике, но ради комедии вполне можно немного преувеличить. Затем, уже после нескольких дней работы, в прессе появилась история о человеке, породившем двести детей. А чуть позже, тоже в прессе, пошли слухи об отце пятисот детей. В конечном счёте сценаристы посчитали возможным увеличить количество детей главного героя до 533.

MediaInfo:

Формат : Matroska
Версия формата : Version 2
Размер файла : 12,0 Гбайт
Продолжительность : 1 ч. 49 м.
Общий поток : 15,8 Мбит/сек
Дата кодирования : UTC 2012-12-29 20:51:57
Программа кодирования : mkvmerge v5.8.0 ('No Sleep / Pillow') built on Sep 2 2012 15:37:04
Библиотека кодирования : libebml v1.2.3 + libmatroska v1.3.0
Видео
Идентификатор : 1
Формат : AVC
Формат/Информация : Advanced Video Codec
Профиль формата : High@L4.1
Параметр CABAC формата : Да
Параметр ReFrames формата : 5 кадров
Идентификатор кодека : V_MPEG4/ISO/AVC
Продолжительность : 1 ч. 49 м.
Битрейт : 14,4 Мбит/сек
Ширина : 1920 пикселей
Высота : 816 пикселей
Соотношение сторон : 2,35:1
Режим частоты кадров : Постоянный
Частота кадров : 23,976 кадра/сек
Цветовое пространство : YUV
Субдискретизация насыщенности : 4:2:0
Битовая глубина : 8 бит
Тип развёртки : Прогрессивная
Бит/(Пиксели*Кадры) : 0.383
Размер потока : 10,9 Гбайт (91%)
Библиотека кодирования : x264 core 129 r2230 1cffe9f
Настройки программы : cabac=1 / ref=5 / deblock=1:-3:-3 / analyse=0x3:0x113 / me=umh / subme=11 / psy=1 / psy_rd=1.00:0.15 / mixed_ref=1 / me_range=48 / chroma_me=1 / trellis=2 / 8x8dct=1 / cqm=0 / deadzone=21,11 / fast_pskip=0 / chroma_qp_offset=-3 / threads=12 / lookahead_threads=2 / sliced_threads=0 / nr=0 / decimate=1 / interlaced=0 / bluray_compat=0 / constrained_intra=0 / bframes=8 / b_pyramid=2 / b_adapt=2 / b_bias=0 / direct=1 / weightb=1 / open_gop=0 / weightp=2 / keyint=250 / keyint_min=24 / scenecut=40 / intra_refresh=0 / rc_lookahead=60 / rc=crf / mbtree=0 / crf=18.0 / qcomp=0.60 / qpmin=0 / qpmax=69 / qpstep=4 / vbv_maxrate=50000 / vbv_bufsize=62500 / crf_max=0.0 / nal_hrd=none / ip_ratio=1.40 / pb_ratio=1.30 / aq=2:1.10
Язык : English
Default : Да
Forced : Нет
Основные цвета : BT.709
Характеристики трансфера : BT.709
Коэффициенты матрицы : BT.709
Аудио #1
Идентификатор : 2
Формат : AC-3
Формат/Информация : Audio Coding 3
Расширение режима : CM (complete main)
Параметр Endianness формата : Big
Идентификатор кодека : A_AC3
Продолжительность : 1 ч. 49 м.
Вид битрейта : Постоянный
Битрейт : 448 Кбит/сек
Каналы : 6 каналов
Расположение каналов : Front: L C R, Side: L R, LFE
Частота : 48,0 КГц
Битовая глубина : 16 бит
Метод сжатия : С потерями
Размер потока : 349 Мбайт (3%)
Заголовок : RUS MVO
Язык : Russian
Default : Да
Forced : Нет
Аудио #2
Идентификатор : 3
Формат : AC-3
Формат/Информация : Audio Coding 3
Расширение режима : CM (complete main)
Параметр Endianness формата : Big
Идентификатор кодека : A_AC3
Продолжительность : 1 ч. 49 м.
Вид битрейта : Постоянный
Битрейт : 640 Кбит/сек
Каналы : 6 каналов
Расположение каналов : Front: L C R, Side: L R, LFE
Частота : 48,0 КГц
Битовая глубина : 16 бит
Метод сжатия : С потерями
Размер потока : 499 Мбайт (4%)
Язык : French
Default : Нет
Forced : Нет
Текст #1
Идентификатор : 4
Формат : UTF-8
Идентификатор кодека : S_TEXT/UTF8
Идентификатор кодека/Информация : UTF-8 Plain Text
Язык : Russian
Default : Да
Forced : Нет
Текст #2
Идентификатор : 5
Формат : UTF-8
Идентификатор кодека : S_TEXT/UTF8
Идентификатор кодека/Информация : UTF-8 Plain Text
Язык : English
Default : Нет
Forced : Нет
Меню
00:00:00.000 : en:00:00:00.000
00:04:19.551 : en:00:04:19.551
00:13:14.961 : en:00:13:14.961
00:18:40.411 : en:00:18:40.411
00:27:33.777 : en:00:27:33.777
00:34:49.587 : en:00:34:49.587
00:40:33.973 : en:00:40:33.973
00:43:54.465 : en:00:43:54.465
00:47:20.546 : en:00:47:20.546
00:55:40.420 : en:00:55:40.420
01:06:06.754 : en:01:06:06.754
01:12:48.656 : en:01:12:48.656
01:19:30.015 : en:01:19:30.015
01:28:11.036 : en:01:28:11.036
01:34:08.268 : en:01:34:08.268
01:44:47.490 : en:01:44:47.490
Скриншоты:

Время раздачи: До первых 10 скачавших

[Цитировать]



Показать сообщения:    

Текущее время: 08-Дек 07:09

Часовой пояс: UTC + 3


Вы не можете начинать темы
Вы не можете отвечать на сообщения
Вы не можете редактировать свои сообщения
Вы не можете удалять свои сообщения
Вы не можете голосовать в опросах
Вы не можете прикреплять файлы к сообщениям
Вы не можете скачивать файлы

!ВНИМАНИЕ!
Сайт не предоставляет электронные версии произведений, а занимается лишь коллекционированием и каталогизацией ссылок, присылаемых и публикуемых на форуме нашими читателями. Если вы являетесь правообладателем какого-либо представленного материала и не желаете, чтобы ссылка на него находилась в нашем каталоге, свяжитесь с нами, и мы незамедлительно удалим ее. Файлы для обмена на трекере предоставлены пользователями сайта, и администрация не несет ответственности за их содержание. Просьба не заливать файлы, защищенные авторскими правами, а также файлы нелегального содержания!