[ Сегодня идет свободное скачивание без начисления Download ]


Статистика раздачи
Нет
 
   
 
Top  
 
 
Дворец Абдин / Saraya Abdeen
Год выпуска: 2014
Страна: Египет
Производство: MBC, MASR Productions
Жанр: Драма, мелодрама, биография, история
Серии (количество): 1-28 (30)
Продолжительность: 28 х ~ 00:43:00
Перевод: Профессиональный многоголосый (Инф. агентство "Хабар")
Субтитры: Отсутствуют
Режиссёр: Амру Арафа
В ролях: Сафа Альтуки, Ала Мурси, Омар Мустафа Метуали, Айман Альшуи, Ахмад Хапши и другие
Описание: Главный герой – историческая личность – египетский хедив, сын Ибрагим-паши и внук знаменитого Мегемет-Али. Исмаил добился от султана наследственного титула хедива, то есть повелителя, что возвысило его над другими правителями Османской империи. Исмаилу удалось достичь финансовой автономии Египта и права самостоятельного заключения финансовых соглашений с иностранными государствами, что, впрочем, усилило задолженность Египта и привело его к финансовому закабалению. Была проведена судебная реформа. Исмаил получил образование в Париже и считал себя европейцем. Он много сделал для страны – завершил строительство Суэцкого канала, построил железные дороги и новые школы, открыл первые газеты, журналы и театр, при нем зародилась арабская литература и публицистика, и было создано подобие парламента — палата нотаблей, имевшая совещательные функции. Но безмерная расточительность правителя свела на нет плоды всех его реформ. Провальные финансовые операции Исмаила привели государство к полному банкротству. В центре сюжетной линии - жизнь королевской семьи. Сам Хедив Исмаил-паша, чтобы защитить свой трон от заговорщиков, балансирует между своими женами и матерью, пытающейся держать руку на пульсе всех общественных дел. Все это происходит в разгар постоянной конкуренции, заговоров и происков прислуги, имеющей доступ ко всем секретам Хедива.
Качество: WEB-DL 720p
Формат: MKV
Видео кодек: AVC
Аудио кодек: AC3
Видео: H.264, 1280x720 (16:9), 25.000 fps, 2400 Kbps
Аудио: Русский, AC3, 2 ch, 48 KHz, 128 Kbps

MI

Format : Matroska
Format version : Version 2
File size : 1.16 GiB
Duration : 1h 4mn
Overall bit rate : 2 573 Kbps
Writing application : Lavf54.63.104
Writing library : Lavf54.63.104
Video
ID : 1
Format : AVC
Format/Info : Advanced Video Codec
Format profile : [email protected]
Format settings, CABAC : No
Format settings, ReFrames : 3 frames
Codec ID : V_MPEG4/ISO/AVC
Duration : 1h 4mn
Bit rate : 2 394 Kbps
Width : 1 280 pixels
Height : 720 pixels
Display aspect ratio : 16:9
Frame rate mode : Constant
Frame rate : 25.000 fps
Color space : YUV
Chroma subsampling : 4:2:0
Bit depth : 8 bits
Scan type : Progressive
Bits/(Pixel*Frame) : 0.104
Stream size : 1.08 GiB (93%)
Default : Yes
Forced : No
Audio
ID : 2
Format : AC-3
Format/Info : Audio Coding 3
Mode extension : CM (complete main)
Format settings, Endianness : Big
Codec ID : A_AC3
Duration : 1h 4mn
Bit rate mode : Constant
Bit rate : 128 Kbps
Channel(s) : 2 channels
Channel positions : Front: L R
Sampling rate : 48.0 KHz
Bit depth : 16 bits
Compression mode : Lossy
Stream size : 59.1 MiB (5%)
Language : Russian
Default : Yes
Forced : No

Скриншоты

[Цитировать]



Показать сообщения:    

Текущее время: 05-Дек 13:29

Часовой пояс: UTC + 3


Вы не можете начинать темы
Вы не можете отвечать на сообщения
Вы не можете редактировать свои сообщения
Вы не можете удалять свои сообщения
Вы не можете голосовать в опросах
Вы не можете прикреплять файлы к сообщениям
Вы не можете скачивать файлы

!ВНИМАНИЕ!
Сайт не предоставляет электронные версии произведений, а занимается лишь коллекционированием и каталогизацией ссылок, присылаемых и публикуемых на форуме нашими читателями. Если вы являетесь правообладателем какого-либо представленного материала и не желаете, чтобы ссылка на него находилась в нашем каталоге, свяжитесь с нами, и мы незамедлительно удалим ее. Файлы для обмена на трекере предоставлены пользователями сайта, и администрация не несет ответственности за их содержание. Просьба не заливать файлы, защищенные авторскими правами, а также файлы нелегального содержания!