[ Сегодня идет свободное скачивание без начисления Download ]


Статистика раздачи
Скачал: [ 3 ]
 
   
 
Top  
 
 
Касание Дзен / Xia nü
Информация о фильме
Название: Касание Дзен
Оригинальное название: Xia nü
Год выхода: 1971
Жанр: приключения
Режиссер: Кинг Ху
В ролях: Сюй Фэн, Ших Чун, Бай Ин, Билли Чан, Ming-Wai Chan, Чан Пин-юй, Чунг Йи Квай, Чунг Ван Мэн, Ших Вэй Чен, Рой Чяо
Описание: Школяр Ку Шен Чай живет в заброшенном форте вместе с матерью — он талантлив и умен, но совершенно лишен амбиций, а оттого беден, как церковная мышь. Однажды в соседний дом въезжает красивая девушка мисс Ян, которой Ку тут же заинтересовывается, но ведет она себя нелюдимо и в высшей степени странно. В чем же дело — может быть, в этой глуши она скрывается от кого-то? Или вообще родом не из нашего мира?

Страна: Тайвань
Продолжительность: 02:59:36
Перевод 1: Профессиональный (многоголосый закадровый) CB Дубль
Перевод 2: Профессиональный (двухголосый закадровый) Студия "Акцент"
Cубтитры: английские
Оригинальная аудиодорожка: китайский
Файл
Качество: BDRip 720p
Видео: AVC / 1280x546 / 2.35:1 / 23.976fps / 8000Kbps / [email protected]
Аудио 1: AC3 / 48.0 KHz / 2ch. / 192kbps / rus / mvo / СВ Дубль
Аудио 2: AC3 / 48.0 KHz / 2ch. / 192kbps / rus / dvo / Студия «Акцент»
Аудио 3: AC3 / 48.0 KHz / 1ch. / 640kbps / Mandarin

Скриншоты

MediaInfo

Общее
Уникальный идентификатор : 240434870799515937946657346603168823765 (0xB4E2125D35ABA910AD880A899A57F9D5)
Полное имя : E:!_HDA.Touch.of.Zen.1971.BDRip.720p_by_vedigo.mkv
Формат : Matroska
Версия формата : Version 4 / Version 2
Размер файла : 11,3 Гбайт
Продолжительность : 2 ч. 59 м.
Общий поток : 9027 Кбит/сек
Название фильма : A.Touch.of.Zen.1971.BDRip.720p_by_vedigo
Дата кодирования : UTC 2016-02-11 08:16:49
Программа кодирования : mkvmerge v8.8.0 ('Wind at my back') 64bit
Библиотека кодирования : libebml v1.3.3 + libmatroska v1.4.4
Видео
Идентификатор : 1
Формат : AVC
Формат/Информация : Advanced Video Codec
Профиль формата : [email protected]
Параметр CABAC формата : Да
Параметр ReFrames формата : 11 кадров
Идентификатор кодека : V_MPEG4/ISO/AVC
Продолжительность : 2 ч. 59 м.
Битрейт : 8000 Кбит/сек
Ширина : 1280 пикселей
Высота : 546 пикселей
Соотношение сторон : 2,35:1
Режим частоты кадров : Постоянный
Частота кадров : 23,976 (24000/1001) кадра/сек
Цветовое пространство : YUV
Субдискретизация насыщенности : 4:2:0
Битовая глубина : 8 бит
Тип развёртки : Прогрессивная
Бит/(Пиксели*Кадры) : 0.477
Размер потока : 10,0 Гбайт (89%)
Заголовок : A.Touch.of.Zen.1971.BDRip.720p_by_vedigo
Библиотека кодирования : x264 core 148 r2665 a01e339
Настройки программы : cabac=1 / ref=11 / deblock=1:-3:-3 / analyse=0x3:0x133 / me=umh / subme=11 / psy=0 / mixed_ref=1 / me_range=48 / chroma_me=1 / trellis=2 / 8x8dct=1 / cqm=0 / deadzone=21,11 / fast_pskip=0 / chroma_qp_offset=0 / threads=12 / lookahead_threads=3 / sliced_threads=0 / nr=0 / decimate=1 / interlaced=0 / bluray_compat=0 / constrained_intra=0 / bframes=10 / b_pyramid=2 / b_adapt=2 / b_bias=0 / direct=3 / weightb=1 / open_gop=0 / weightp=2 / keyint=250 / keyint_min=23 / scenecut=40 / intra_refresh=0 / rc_lookahead=40 / rc=2pass / mbtree=0 / bitrate=8000 / ratetol=1.0 / qcomp=0.60 / qpmin=0 / qpmax=69 / qpstep=4 / cplxblur=20.0 / qblur=0.5 / vbv_maxrate=50000 / vbv_bufsize=62500 / nal_hrd=none / filler=0 / ip_ratio=1.40 / pb_ratio=1.30 / aq=1:0.90
Default : Да
Forced : Нет
Аудио #1
Идентификатор : 2
Формат : AC-3
Формат/Информация : Audio Coding 3
Расширение режима : CM (complete main)
Параметр Endianness формата : Big
Идентификатор кодека : A_AC3
Продолжительность : 2 ч. 59 м.
Вид битрейта : Постоянный
Битрейт : 192 Кбит/сек
Каналы : 2 канала
Расположение каналов : Front: L R
Частота : 48,0 КГц
Частота кадров : 31,250 кадров/сек (1536 spf)
Метод сжатия : С потерями
Размер потока : 247 Мбайт (2%)
Заголовок : MVO @ CB Дубль
Язык : Russian
Default : Да
Forced : Нет
Аудио #2
Идентификатор : 3
Формат : AC-3
Формат/Информация : Audio Coding 3
Расширение режима : CM (complete main)
Параметр Endianness формата : Big
Идентификатор кодека : A_AC3
Продолжительность : 2 ч. 59 м.
Вид битрейта : Постоянный
Битрейт : 192 Кбит/сек
Каналы : 2 канала
Расположение каналов : Front: L R
Частота : 48,0 КГц
Частота кадров : 31,250 кадров/сек (1536 spf)
Метод сжатия : С потерями
Размер потока : 247 Мбайт (2%)
Заголовок : DVO @ Студия "Акцент"
Язык : Russian
Default : Нет
Forced : Нет
Аудио #3
Идентификатор : 4
Формат : AC-3
Формат/Информация : Audio Coding 3
Расширение режима : CM (complete main)
Параметр Endianness формата : Big
Идентификатор кодека : A_AC3
Продолжительность : 2 ч. 59 м.
Вид битрейта : Постоянный
Битрейт : 640 Кбит/сек
Каналы : 1 канал
Расположение каналов : Front: C
Частота : 48,0 КГц
Частота кадров : 31,250 кадров/сек (1536 spf)
Метод сжатия : С потерями
Размер потока : 822 Мбайт (7%)
Заголовок : original
Язык : Chinese
Default : Нет
Forced : Нет
Текст
Идентификатор : 5
Формат : UTF-8
Идентификатор кодека : S_TEXT/UTF8
Идентификатор кодека/Информация : UTF-8 Plain Text
Продолжительность : 2 ч. 58 м.
Битрейт : 16 бит/сек
Count of elements : 908
Размер потока : 21,7 Кбайт (0%)
Заголовок : subtitle eng
Язык : English
Default : Нет
Forced : Нет

[Цитировать]

Топик был перенесен из форума Приключения / Исторический в форум Классика зарубежного кино (HD Video)
Ermoha



Показать сообщения:    

Текущее время: 04-Дек 05:00

Часовой пояс: UTC + 3


Вы не можете начинать темы
Вы не можете отвечать на сообщения
Вы не можете редактировать свои сообщения
Вы не можете удалять свои сообщения
Вы не можете голосовать в опросах
Вы не можете прикреплять файлы к сообщениям
Вы не можете скачивать файлы

!ВНИМАНИЕ!
Сайт не предоставляет электронные версии произведений, а занимается лишь коллекционированием и каталогизацией ссылок, присылаемых и публикуемых на форуме нашими читателями. Если вы являетесь правообладателем какого-либо представленного материала и не желаете, чтобы ссылка на него находилась в нашем каталоге, свяжитесь с нами, и мы незамедлительно удалим ее. Файлы для обмена на трекере предоставлены пользователями сайта, и администрация не несет ответственности за их содержание. Просьба не заливать файлы, защищенные авторскими правами, а также файлы нелегального содержания!