[ Сегодня идет свободное скачивание без начисления Download ]


Статистика раздачи
Скачал: [ 3 ]
 
   
 
Top  
 
 
Охота на дикарей / Hunt for the Wilderpeople
Название: Охота на дикарей
Оригинальное название: Hunt for the Wilderpeople
Год выхода: 2016
Страна: Новая Зеландия
Студия: Piki Films, Defender Films, Curious Film
Продолжительность: 01:40:58
Жанр: драма, комедия, приключения, ...
Режиссер: Тайка Вайтити
В ролях: Сэм Нил, Джулиан Деннисон, Рима Те Вьята, Рэйчел Хаус, Tioreore Ngatai-Melbourne, Оскар Кайтли, Стэн Уокер, Майк Миноуг, Коэн Холлоуэй, Риз Дэрби, ...
Перевод: Любительский (двухголосый, закадровый) RecentFilms
О фильме: Рикки Бэйкер — упитанный городской хулиган. Сотрудница социальной службы Пола отвозит подростка в сельскую местность, где живёт единственная готовая принять его семья — Белла и её нелюдимый муж Гек. Когда Белла умирает и социальная защита собирается забрать Рикки, тот убегает в леса. Гек отправляется за ним. Сумасбродная Пола убеждена, что странный Гек слетел с катушек из-за смерти жены и похитил подростка. Она развязывает общенациональную охоту на мальчика и его «совратителя»...

Кодек: x264
Качество: BDRip 1080p
Видео: 1920x1080, 9611 kbps, 24 fps
Аудио #1: AC-3, 6 ch, 640 kbps (Rus) - DVOL RecentFilms
Аудио #2: DTS, 6 ch, 1509 kbps (Jpn)
Субтитры: Русские (SDH от ifirf86), Английские

MediaInfo

Общее
Уникальный идентификатор : 206851429501879233653033658699505356816 (0x9B9E22DEC511E27E9CE3B38B5C525010)
Полное имя : Охота на дикарей (Hunt for the Wilderpeople) 2016 BDRip 1080p.mkv
Формат : Matroska
Версия формата : Version 2
Размер файла : 8,29 Гбайт
Продолжительность : 1 ч. 40 м.
Общий поток : 11,8 Мбит/сек
Название фильма : Hunt.for.the.Wilderpeople.2016.BluRay.1080p.x264.HD.MA.5.1-LTT
Дата кодирования : UTC 2016-10-02 13:02:44
Программа кодирования : mkvmerge v4.0.0 ('The Stars were mine') сборка от Jun 6 2010 16:18:42
Библиотека кодирования : libebml v1.0.0 + libmatroska v1.0.0
Видео
Идентификатор : 1
Формат : AVC
Формат/Информация : Advanced Video Codec
Профиль формата : [email protected]
Параметр CABAC формата : Да
Параметр ReFrames формата : 4 кадра
Идентификатор кодека : V_MPEG4/ISO/AVC
Продолжительность : 1 ч. 40 м.
Битрейт : 9611 Кбит/сек
Ширина : 1920 пикселей
Высота : 1080 пикселей
Соотношение сторон : 16:9
Режим частоты кадров : Постоянный
Частота кадров : 24,000 кадра/сек
Цветовое пространство : YUV
Субдискретизация насыщенности : 4:2:0
Битовая глубина : 8 бит
Тип развёртки : Прогрессивная
Бит/(Пиксели*Кадры) : 0.193
Размер потока : 6,61 Гбайт (80%)
Библиотека кодирования : x264 core 148 r2705kMod 3f5ed56
Настройки программы : cabac=1 / ref=4 / deblock=1:0:0 / analyse=0x3:0x133 / me=umh / subme=9 / psy=1 / fade_compensate=0.00 / psy_rd=1.00:0.00 / mixed_ref=1 / me_range=16 / chroma_me=1 / trellis=2 / 8x8dct=1 / cqm=0 / deadzone=21,11 / fast_pskip=1 / chroma_qp_offset=-2 / threads=7 / lookahead_threads=1 / sliced_threads=0 / nr=0 / decimate=1 / interlaced=0 / bluray_compat=0 / constrained_intra=0 / fgo=0 / bframes=3 / b_pyramid=2 / b_adapt=2 / b_bias=0 / direct=3 / weightb=1 / open_gop=0 / weightp=2 / keyint=250 / keyint_min=25 / scenecut=40 / intra_refresh=0 / rc_lookahead=60 / rc=2pass / mbtree=1 / bitrate=9611 / ratetol=1.0 / qcomp=0.60 / qpmin=0 / qpmax=69 / qpstep=4 / cplxblur=20.0 / qblur=0.5 / vbv_maxrate=16000 / vbv_bufsize=4805 / nal_hrd=none / filler=0 / ip_ratio=1.40 / aq=1:1.00
Язык : English
Default : Нет
Forced : Нет
Аудио #1
Идентификатор : 2
Формат : AC-3
Формат/Информация : Audio Coding 3
Расширение режима : CM (complete main)
Параметр Endianness формата : Big
Идентификатор кодека : A_AC3
Продолжительность : 1 ч. 40 м.
Вид битрейта : Постоянный
Битрейт : 640 Кбит/сек
Каналы : 6 каналов
Расположение каналов : Front: L C R, Side: L R, LFE
Частота : 48,0 КГц
Частота кадров : 31,250 кадров/сек (1536 spf)
Метод сжатия : С потерями
Размер потока : 462 Мбайт (5%)
Заголовок : DVOL RecentFilms
Язык : Russian
Default : Нет
Forced : Нет
Аудио #2
Идентификатор : 3
Формат : DTS
Формат/Информация : Digital Theater Systems
Режим : 16
Параметр Endianness формата : Big
Идентификатор кодека : A_DTS
Продолжительность : 1 ч. 40 м.
Вид битрейта : Постоянный
Битрейт : 1509 Кбит/сек
Каналы : 6 каналов
Расположение каналов : Front: L C R, Side: L R, LFE
Частота : 48,0 КГц
Частота кадров : 93,750 кадра/сек (512 spf)
Битовая глубина : 24 бит
Метод сжатия : С потерями
Размер потока : 1,06 Гбайт (13%)
Язык : English
Default : Нет
Forced : Нет
Текст #1
Идентификатор : 4
Формат : UTF-8
Идентификатор кодека : S_TEXT/UTF8
Идентификатор кодека/Информация : UTF-8 Plain Text
Заголовок : SDH
Язык : Russian
Default : Нет
Forced : Нет
Текст #2
Идентификатор : 5
Формат : UTF-8
Идентификатор кодека : S_TEXT/UTF8
Идентификатор кодека/Информация : UTF-8 Plain Text
Язык : English
Default : Нет
Forced : Нет

Скриншоты


[Цитировать]



Показать сообщения:    

Текущее время: 05-Дек 03:33

Часовой пояс: UTC + 3


Вы не можете начинать темы
Вы не можете отвечать на сообщения
Вы не можете редактировать свои сообщения
Вы не можете удалять свои сообщения
Вы не можете голосовать в опросах
Вы не можете прикреплять файлы к сообщениям
Вы не можете скачивать файлы

!ВНИМАНИЕ!
Сайт не предоставляет электронные версии произведений, а занимается лишь коллекционированием и каталогизацией ссылок, присылаемых и публикуемых на форуме нашими читателями. Если вы являетесь правообладателем какого-либо представленного материала и не желаете, чтобы ссылка на него находилась в нашем каталоге, свяжитесь с нами, и мы незамедлительно удалим ее. Файлы для обмена на трекере предоставлены пользователями сайта, и администрация не несет ответственности за их содержание. Просьба не заливать файлы, защищенные авторскими правами, а также файлы нелегального содержания!