[ Сегодня идет свободное скачивание без начисления Download ]


Статистика раздачи
Нет
 
   
 
Top  
 
 
-Конец человечества / Exit Humanity (2011) BDRip- Русское название: Конец человечества
Оригинальное название: Exit Humanity
Студия: Foresight Features
Страна: Канадa
Год выпуска: 2011
Жанр: Ужасы, Драма
Описание фильма:
События разворачиваются во времена войны американского Севера и Юга. Молодой боец попадает между двух огней: с одной стороны враги, а с другой - орды оживших мертвецов, зомби. Ему придется приложить не мало усилий, чтобы выжить…
Режиссер: Джон Геддес / John Geddes
Актеры: Брайан Кокс, Марк Гибсон, Ди Уоллес-Стоун, Билл Моусли, Стивен МакХэтти, Джордан Хэйес, Адам Сейболд, Эри Миллен, Джейсон Брауни Браун, Сара Stunt и др.
Продолжительность: 01:55:03
Перевод: Одноголосый закадровый Kenum |Владислав Данилов|
Оригинальная аудиодорожка: Английская
Субтитры: нет

Видеокодек: MPEG-4 AVC/H.264
Битрейт видео: ~13.1 Mbp
Размер кадра: 1920x816p
Качество видео: BDRip
Аудио 1: Русский / DTS / 1536 Kbps / 5.1 / 48 kHz / 24-bit (VO Kenum)
Аудио 2: English / DTS / 1536 Kbps / 5.1 / 48 kHz / 24-bit (Оригинал)
Навигация по главам: даСкриншоты:

MediaInfo:

General
Complete name : O:\Конец человечества.mkv
Format : Matroska
File size : 13.2 GiB
Duration : 1h 55mn
Overall bit rate : 16.4 Mbps
Encoded date : UTC 2010-02-22 21:41:31
Writing application : mkvmerge v5.9.0 ('On The Loose') built on Dec 9 2012 15:37:01
Writing library : libebml v1.3.0 + libmatroska v1.4.0
Video
ID : 1
Format : AVC
Format/Info : Advanced Video Codec
Format profile : High@L4.1
Format settings, CABAC : Yes
Format settings, ReFrames : 4 frames
Muxing mode : Container profile=Unknown@4.1
Codec ID : V_MPEG4/ISO/AVC
Duration : 1h 54mn
Bit rate : 13.1 Mbps
Width : 1 920 pixels
Height : 816 pixels
Display aspect ratio : 2.35:1
Frame rate : 23.976 fps
Resolution : 8 bits
Colorimetry : 4:2:0
Scan type : Progressive
Bits/(Pixel*Frame) : 0.349
Stream size : 10.5 GiB (80%)
Writing library : x264 core 120 r2164 da19765
Encoding settings : cabac=1 / ref=4 / deblock=1:-3:-3 / analyse=0x3:0x113 / me=umh / subme=8 / psy=1 / psy_rd=1.03:0.09 / mixed_ref=0 / me_range=32 / chroma_me=1 / trellis=2 / 8x8dct=1 / cqm=0 / deadzone=21,11 / fast_pskip=0 / chroma_qp_offset=-1 / threads=6 / sliced_threads=0 / nr=0 / decimate=0 / interlaced=0 / bluray_compat=0 / constrained_intra=0 / bframes=7 / b_pyramid=2 / b_adapt=2 / b_bias=0 / direct=2 / weightb=1 / open_gop=0 / weightp=1 / keyint=240 / keyint_min=22 / scenecut=40 / intra_refresh=0 / rc_lookahead=60 / rc=crf / mbtree=1 / crf=18.0 / qcomp=0.60 / qpmin=0 / qpmax=51 / qpstep=4 / vbv_maxrate=38000 / vbv_bufsize=30000 / crf_max=0.0 / nal_hrd=none / ip_ratio=1.40 / aq=1:1.20
Matrix coefficients : BT.709-5, BT.1361, IEC 61966-2-4 709, SMPTE RP177
Audio #1
ID : 2
Format : DTS
Format/Info : Digital Theater Systems
Codec ID : A_DTS
Duration : 1h 55mn
Bit rate mode : Constant
Bit rate : 1 510 Kbps
Channel(s) : 6 channels
Channel positions : Front: L C R, Surround: L R, LFE
Sampling rate : 48.0 KHz
Resolution : 24 bits
Stream size : 1.21 GiB (9%)
Title : Любительский (одноголосый закадровый) Kenum (Владислав Данилов)
Language : Russian
Audio #2
ID : 3
Format : DTS
Format/Info : Digital Theater Systems
Codec ID : A_DTS
Duration : 1h 55mn
Bit rate mode : Constant
Bit rate : 1 510 Kbps
Channel(s) : 6 channels
Channel positions : Front: L C R, Surround: L R, LFE
Sampling rate : 48.0 KHz
Resolution : 24 bits
Stream size : 1.21 GiB (9%)
Title : Оригинал
Menu
00:00:00.000 : en:00:00:00.000
00:11:02.871 : en:00:11:02.871
00:20:28.352 : en:00:20:28.352
00:29:37.192 : en:00:29:37.192
00:41:31.239 : en:00:41:31.239
00:54:13.000 : en:00:54:13.000
01:02:59.901 : en:01:02:59.901
01:11:12.101 : en:01:11:12.101
01:19:29.807 : en:01:19:29.807
01:29:25.860 : en:01:29:25.860
01:38:54.512 : en:01:38:54.512
01:45:27.404 : en:01:45:27.404
Время раздачи: 24/7 - круглосуточно
Спасибо - это прекрасное словo, но если Вам реально хочется меня отблагодарить, оставайтесь на раздаче как можно дольше, и тогда наша благодарность будет обоюдной!!!!

[Цитировать]



Показать сообщения:    

Текущее время: 11-Дек 07:11

Часовой пояс: UTC + 3


Вы не можете начинать темы
Вы не можете отвечать на сообщения
Вы не можете редактировать свои сообщения
Вы не можете удалять свои сообщения
Вы не можете голосовать в опросах
Вы не можете прикреплять файлы к сообщениям
Вы не можете скачивать файлы

!ВНИМАНИЕ!
Сайт не предоставляет электронные версии произведений, а занимается лишь коллекционированием и каталогизацией ссылок, присылаемых и публикуемых на форуме нашими читателями. Если вы являетесь правообладателем какого-либо представленного материала и не желаете, чтобы ссылка на него находилась в нашем каталоге, свяжитесь с нами, и мы незамедлительно удалим ее. Файлы для обмена на трекере предоставлены пользователями сайта, и администрация не несет ответственности за их содержание. Просьба не заливать файлы, защищенные авторскими правами, а также файлы нелегального содержания!