[ Сегодня идет свободное скачивание без начисления Download ]


Статистика раздачи
Нет
 
   
 
Top  
 
 
-Щелкунчик и Крысиный король / The Nutcracker (2009) BDRip- Русское название: Щелкунчик и Крысиный король
Оригинальное название: The Nutcracker
Год выпуска: 2009
Жанр: Фэнтези, Боевик, Семейный, ...
Описание фильма:
Вена, 1920-е годы. Девятилетняя Мэри живет в доме, который полон прекрасных вещей и одиночества. Брат Макс, неутомимый проказник, донимает ее, а родители, хотя и горячо ее любят, слишком заняты, чтобы уделять ей достаточно внимания. Мэри тоскует по общению с друзьями и приключениям. Накануне Рождества к ней приходит любимый дядюшка Альберт и дарит деревянную куклу — Щелкунчика. Воображение Мэри оживляет куклу, и она попадает в мир детских грез, где все становится возможным — снежинки-балерины кружатся в танце, игрушки на елке оживают, да и сама ель превращается в целую вселенную, в которой правит добрая Снежная Фея, так похожая на маму…
И пока Мэри осваивается в этом удивительном мире, полчища крыс во главе с коварным Крысиным Королем и его злобной матерью Крысиной Королевой захватывают город и порабощают людей, стремясь стереть человечество с лица земли. Щелкунчик собирает друзей на битву с крысами, но попадает в плен. Победить крысиную армию и освободить Щелкунчика будет не просто — отважной Мэри на пути будут мешать дикие байкеры на удивительных летающих мотоциклах, крысы-роботы и летучие мыши, экипированные сверхмощным фантастическим оружием…-Режиссер: Андрей Кончаловский
Актеры: Эль Фаннинг, Нейтан Лейн, Джон Туртурро, Фрэнсис де ла Тур, Аарон Майкл Дрозин, Ричард Э. Грант, Юлия Высоцкая, Ширли Хендерсон, Чарли Роу, Питер Эллиотт
Роли дублировали: Юна Тимошенко, Владимир Долинский, Филипп Киркоров, Алла Пугачёва, Лев Аксельрод
Продолжительность: 01:48:00
Перевод: Дублированный- -Дата мировой премьеры: 24 ноября 2010
Дата российской премьеры: 1 января 2011, «Централ Партнершип»
Дата выхода DVD релиза: 17 февраля 2011, «CP-Digital»
Дата выхода BLU-RAY релиза: 24 марта 2011, «CP-Digital»
Видеокодек: MPEG-4 AVC/H.264
Битрейт видео: ~14,6 Мбит/сек
Размер кадра: 1920x1080
Качество видео: BDRip / За исходник спасибо:
Аудио №1: AC3 5.1, 640 kbps - Русский
Аудио №2: AC3 5.1, 640 kbps - Английский-

Media info:

Общее
Уникальный идентификатор : 199975024411610833711342660200778506669 (0x9671C9EC7686E9808EC61BF0816D21AD)
Полное имя : H:\my films\NUTCRACKER_3D.mkv
Формат : Matroska
Версия формата : Version 4 / Version 2
Размер файла : 12,2 Гбайт
Продолжительность : 1 ч. 48 м.
Общий поток : 16,2 Мбит/сек
Название фильма : NUTCRACKER_3D_crop_over/under
Дата кодирования : UTC 2013-02-10 22:17:22
Программа кодирования : mkvmerge v6.0.0 ('Coming Up For Air') built on Jan 20 2013 09:52:00
Библиотека кодирования : libebml v1.3.0 + libmatroska v1.4.0
Видео
Идентификатор : 1
Формат : AVC
Формат/Информация : Advanced Video Codec
Профиль формата : [email protected]
Параметр CABAC формата : Да
Параметр ReFrames формата : 4 кадра
Параметр GOP формата : M=5, N=12
Идентификатор кодека : V_MPEG4/ISO/AVC
Продолжительность : 1 ч. 48 м.
Битрейт : 14,6 Мбит/сек
Ширина : 1920 пикселей
Высота : 1080 пикселей
Соотношение сторон : 16:9
Режим частоты кадров : Постоянный
Частота кадров : 23,976 кадра/сек
Цветовое пространство : YUV
Субдискретизация насыщенности : 4:2:0
Битовая глубина : 8 бит
Тип развёртки : Прогрессивная
Бит/(Пиксели*Кадры) : 0.293
Размер потока : 11,0 Гбайт (90%)
Заголовок : rip by I/N
Библиотека кодирования : x264 core 128 r2216M 198a7ea
Настройки программы : cabac=1 / ref=4 / deblock=1:-3:-3 / analyse=0x3:0x133 / me=umh / subme=7 / psy=1 / psy_rd=1.00:0.10 / mixed_ref=1 / me_range=32 / chroma_me=1 / trellis=2 / 8x8dct=1 / cqm=1 / deadzone=21,11 / fast_pskip=1 / chroma_qp_offset=-3 / threads=4 / lookahead_threads=1 / sliced_threads=0 / nr=0 / decimate=1 / interlaced=0 / bluray_compat=0 / constrained_intra=0 / bframes=4 / b_pyramid=2 / b_adapt=2 / b_bias=0 / direct=2 / weightb=1 / open_gop=0 / weightp=2 / keyint=12 / keyint_min=2 / scenecut=60 / intra_refresh=0 / rc_lookahead=17 / rc=crf / mbtree=1 / crf=18.0 / qcomp=0.60 / qpmin=10 / qpmax=60 / qpstep=4 / vbv_maxrate=40000 / vbv_bufsize=30000 / crf_max=30.0 / nal_hrd=none / ip_ratio=1.40 / aq=1:0.70
Default : Да
Forced : Нет
Аудио #1
Идентификатор : 2
Формат : AC-3
Формат/Информация : Audio Coding 3
Расширение режима : CM (complete main)
Параметр Endianness формата : Big
Идентификатор кодека : A_AC3
Продолжительность : 1 ч. 48 м.
Вид битрейта : Постоянный
Битрейт : 640 Кбит/сек
Каналы : 6 каналов
Расположение каналов : Front: L C R, Side: L R, LFE
Частота : 48,0 КГц
Битовая глубина : 16 бит
Метод сжатия : С потерями
Задержка видео : 27 мс.
Размер потока : 494 Мбайт (4%)
Язык : Russian
Default : Да
Forced : Нет
Аудио #2
Идентификатор : 3
Формат : AC-3
Формат/Информация : Audio Coding 3
Расширение режима : CM (complete main)
Параметр Endianness формата : Big
Идентификатор кодека : A_AC3
Продолжительность : 1 ч. 48 м.
Вид битрейта : Постоянный
Битрейт : 640 Кбит/сек
Каналы : 6 каналов
Расположение каналов : Front: L C R, Side: L R, LFE
Частота : 48,0 КГц
Битовая глубина : 16 бит
Метод сжатия : С потерями
Задержка видео : 27 мс.
Размер потока : 494 Мбайт (4%)
Язык : English
Default : Нет
Forced : Нет
Меню
00:00:00.000 : en:(01)00:00:00:000
00:07:16.310 : en:(02)00:07:16:310
00:13:56.460 : en:(03)00:13:56:460
00:20:41.031 : en:(04)00:20:41:031
00:27:39.032 : en:(05)00:27:39:032
00:36:02.285 : en:(06)00:36:02:285
00:45:48.579 : en:(07)00:45:48:579
00:55:24.571 : en:(08)00:55:24:571
01:05:32.345 : en:(09)01:05:32:345
01:15:56.051 : en:(10)01:15:56:051
01:28:26.718 : en:(11)01:28:26:718
01:39:16.951 : en:(12)01:39:16:951
01:48:00.098 : en:(13)01:48:00:098
Скриншоты:

Особенности релиза:

Справа и слева у видеоряда обрезано по 248р, что дает возможность просмотра на полный экран (без черных полос) на телевизорах с соотношением сторон 16:9 без изменения пропорций. На мой взгляд плюсы данных рипов- это более глубокое восприятие 3D-эффектов (конечно там где они есть) К минусам отнесу- вынужденное обрезание кадра по бокам. Так-что господа- выбор за вами! Всем приятного просмотра!
Проверено на встроенном плейере ТВ Samsung-D6500Время раздачи: 24/7 - круглосуточно до 15 скачавших

[Цитировать]



Показать сообщения:    

Текущее время: 04-Дек 11:18

Часовой пояс: UTC + 3


Вы не можете начинать темы
Вы не можете отвечать на сообщения
Вы не можете редактировать свои сообщения
Вы не можете удалять свои сообщения
Вы не можете голосовать в опросах
Вы не можете прикреплять файлы к сообщениям
Вы не можете скачивать файлы

!ВНИМАНИЕ!
Сайт не предоставляет электронные версии произведений, а занимается лишь коллекционированием и каталогизацией ссылок, присылаемых и публикуемых на форуме нашими читателями. Если вы являетесь правообладателем какого-либо представленного материала и не желаете, чтобы ссылка на него находилась в нашем каталоге, свяжитесь с нами, и мы незамедлительно удалим ее. Файлы для обмена на трекере предоставлены пользователями сайта, и администрация не несет ответственности за их содержание. Просьба не заливать файлы, защищенные авторскими правами, а также файлы нелегального содержания!