[ Сегодня идет свободное скачивание без начисления Download ]


Статистика раздачи
Нет
 
   
 
Top  
 
 
-Дик Трэйси / Dick Tracy (1990) [720p] BDRip- Русское название: Дик Трэйси
Оригинальное название: Dick Tracy
Год выпуска: 1990
Производство: США
Жанр: боевик, триллер, мелодрама, криминал
Описание фильма: Тридцатые годы. Чикаго. В городе всем заправляет банда головорезов, которых никто не может остановить. Единственный, кому это под силу, - отважный сыщик Дик Трэйси. И он не отступит, даже если на его пути оказывается главарь мафии. Но сердце бесстрашного героя может не устоять перед чарами соблазнительной красотки...
Режиссер: Уоррен Битти
Актеры: Уоррен Битти, Аль Пачино, Мадонна, Гленн Хедли, Чарли Корсмо, Дастин Хоффман, Чарльз Дёрнинг, Пол Сорвино, Майкл Дж. Поллард, Джеймс Кин-Рейтинги:
Дата мировой премьеры: 14 июня 1990
Релиз на Blu-Ray (РФ): 12 марта 2013, «Уолт Дисней Компани СНГ»-Релиз от: (за исходник спасибо HDCLUB)
Продолжительность: 01:45:05
Перевод: Многоголосый закадровый
Субтитры: Русский (форсированные и полные -.srt ), Английский (полные - .PGS)
Качество видео: BDRip (batonchik)
Контейнер: MKV
Видеокодек: MPEG-4 AVC
Битрейт видео: ~ 4200 Кбит/сек
Размер кадра: 1280x692
Аудио:
1. Dolby Digital Audio / Русский / 640 kbps 5.1 / 48 kHz
2. Dolby Digital Audio / English / 640 kbps 5.1 / 48 kHz
-Главы: есть

H.264 log

--[Information] [28.12.2012 20:53:08] Standard error stream
---[NoImage] raw [info]: 1280x692p 1:1 @ 24000/1001 fps (cfr)
---[NoImage] x264 [info]: using SAR=1/1
---[NoImage] x264 [info]: using cpu capabilities: MMX2 SSE2Fast SSSE3 FastShuffle SSE4.2 AVX
---[NoImage] x264 [info]: profile High, level 4.1
---[NoImage]
---[NoImage] x264 [info]: frame I:1135 Avg QP:16.72 size:124307
---[NoImage] x264 [info]: frame P:29863 Avg QP:19.53 size: 37901
---[NoImage] x264 [info]: frame B:120181 Avg QP:21.08 size: 16929

---[NoImage] x264 [info]: consecutive B-frames: 1.8% 2.0% 7.1% 11.3% 14.8% 43.0% 8.0% 4.3% 2.5% 1.4% 1.3% 1.4% 1.1%
---[NoImage] x264 [info]: mb I I16..4: 8.7% 77.8% 13.5%
---[NoImage] x264 [info]: mb P I16..4: 1.3% 10.5% 1.0% P16..4: 46.4% 19.5% 15.0% 0.3% 0.1% skip: 5.8%
---[NoImage] x264 [info]: mb B I16..4: 0.1% 1.0% 0.1% B16..8: 45.7% 11.6% 2.5% direct: 6.6% skip:32.4% L0:48.6% L1:45.2% BI: 6.2%
---[NoImage] x264 [info]: 8x8 transform intra:82.3% inter:71.4%
---[NoImage] x264 [info]: direct mvs spatial:99.4% temporal:0.6%
---[NoImage] x264 [info]: coded y,uvDC,uvAC intra: 86.4% 88.5% 70.9% inter: 30.4% 33.0% 8.8%
---[NoImage] x264 [info]: i16 v,h,dc,p: 46% 13% 13% 28%
---[NoImage] x264 [info]: i8 v,h,dc,ddl,ddr,vr,hd,vl,hu: 12% 7% 6% 11% 14% 14% 13% 12% 12%
---[NoImage] x264 [info]: i4 v,h,dc,ddl,ddr,vr,hd,vl,hu: 24% 7% 4% 9% 13% 13% 11% 10% 10%
---[NoImage] x264 [info]: i8c dc,h,v,p: 42% 21% 19% 18%
---[NoImage] x264 [info]: Weighted P-Frames: Y:5.8% UV:2.6%
---[NoImage] x264 [info]: ref P L0: 38.6% 8.7% 20.3% 8.4% 7.4% 5.2% 5.1% 2.8% 2.9% 0.5% 0.0%
---[NoImage] x264 [info]: ref B L0: 58.1% 17.1% 9.7% 5.3% 4.0% 3.4% 1.8% 0.5%
---[NoImage] x264 [info]: ref B L1: 87.2% 12.8%
---[NoImage] x264 [info]: kb/s:4196.31
---[NoImage] encoded 151179 frames, 8.71 fps, 4196.32 kb/s
--[Information] Final statistics
---[Information] [28.12.2012 20:53:09] Video Bitrate Desired: 4200 kbit/s
---[Information] [28.12.2012 20:53:09] Video Bitrate Obtained (approximate): 4197 kbit/s

MediaInfo 0.7.61

Общее
Уникальный идентификатор : 237961591655485895892584706540977378318 (0xB305BC499E6E4323B73D086C379DD40E)
Полное имя :\Dick Tracy (1990) BDRip.720p.NNM-CLUB.mkv
Формат : Matroska
Версия формата : Version 4 / Version 2
Размер файла : 4,03 Гбайт
Продолжительность : 1 ч. 45 м.
Общий поток : 5493 Кбит/сек
Название фильма : Dick Tracy (1990) BDRip.720p.NNM-CLUB
Дата кодирования : UTC 2010-02-22 21:41:31
Программа кодирования : mkvmerge v5.9.0 ('On The Loose') built on Dec 9 2012 15:37:01
Библиотека кодирования : libebml v1.3.0 + libmatroska v1.4.0
Видео
Идентификатор : 1
Формат : AVC
Формат/Информация : Advanced Video Codec
Профиль формата : [email protected]
Параметр CABAC формата : Да
Параметр ReFrames формата : 9 кадров
Идентификатор кодека : V_MPEG4/ISO/AVC
Продолжительность : 1 ч. 45 м.
Битрейт : 4200 Кбит/сек
Ширина : 1280 пикселей
Высота : 692 пикселя
Соотношение сторон : 1,85:1
Режим частоты кадров : Постоянный
Частота кадров : 23,976 кадра/сек
Цветовое пространство : YUV
Субдискретизация насыщенности : 4:2:0
Битовая глубина : 8 бит
Тип развёртки : Прогрессивная
Бит/(Пиксели*Кадры) : 0.198
Размер потока : 3,01 Гбайт (75%)
Заголовок : Dick Tracy (1990) BDRip.720p.NNM-CLUB
Библиотека кодирования : x264 core 129 r2230 1cffe9f
Настройки программы : cabac=1 / ref=9 / deblock=0:-1:-1 / analyse=0x3:0x133 / me=umh / subme=10 / psy=1 / psy_rd=1.00:0.15 / mixed_ref=1 / me_range=32 / chroma_me=1 / trellis=2 / 8x8dct=1 / cqm=0 / deadzone=21,11 / fast_pskip=0 / chroma_qp_offset=-3 / threads=12 / lookahead_threads=2 / sliced_threads=0 / nr=0 / decimate=1 / interlaced=0 / bluray_compat=0 / constrained_intra=0 / bframes=12 / b_pyramid=2 / b_adapt=2 / b_bias=0 / direct=3 / weightb=1 / open_gop=0 / weightp=2 / keyint=240 / keyint_min=22 / scenecut=40 / intra_refresh=0 / rc_lookahead=40 / rc=2pass / mbtree=1 / bitrate=4200 / ratetol=1.0 / qcomp=0.60 / qpmin=0 / qpmax=69 / qpstep=4 / cplxblur=20.0 / qblur=0.5 / ip_ratio=1.40 / aq=1:1.00
Язык : English
Default : Да
Forced : Нет
Аудио #1
Идентификатор : 2
Формат : AC-3
Формат/Информация : Audio Coding 3
Расширение режима : CM (complete main)
Параметр Endianness формата : Big
Идентификатор кодека : A_AC3
Продолжительность : 1 ч. 45 м.
Вид битрейта : Постоянный
Битрейт : 640 Кбит/сек
Каналы : 6 каналов
Расположение каналов : Front: L C R, Side: L R, LFE
Частота : 48,0 КГц
Битовая глубина : 16 бит
Метод сжатия : С потерями
Размер потока : 481 Мбайт (12%)
Заголовок : Многоголосый закадровый
Язык : Russian
Default : Да
Forced : Нет
Аудио #2
Идентификатор : 3
Формат : AC-3
Формат/Информация : Audio Coding 3
Расширение режима : CM (complete main)
Параметр Endianness формата : Big
Идентификатор кодека : A_AC3
Продолжительность : 1 ч. 45 м.
Вид битрейта : Постоянный
Битрейт : 640 Кбит/сек
Каналы : 6 каналов
Расположение каналов : Front: L C R, Side: L R, LFE
Частота : 48,0 КГц
Битовая глубина : 16 бит
Метод сжатия : С потерями
Размер потока : 481 Мбайт (12%)
Заголовок : Оригинал
Язык : English
Default : Нет
Forced : Нет
Текст #1
Идентификатор : 4
Формат : UTF-8
Идентификатор кодека : S_TEXT/UTF8
Идентификатор кодека/Информация : UTF-8 Plain Text
Заголовок : Форс.
Язык : Russian
Default : Да
Forced : Нет
Текст #2
Идентификатор : 5
Формат : UTF-8
Идентификатор кодека : S_TEXT/UTF8
Идентификатор кодека/Информация : UTF-8 Plain Text
Заголовок : Полные
Язык : Russian
Default : Нет
Forced : Нет
Текст #3
Идентификатор : 6
Формат : PGS
Режим смешивания : zlib
Идентификатор кодека : S_HDMV/PGS
Идентификатор кодека/Информация : The same subtitle format used on BDs/HD-DVDs
Заголовок : Полные
Язык : English
Default : Нет
Forced : Нет
Меню
00:00:00.000 : en:Chapter 01
00:08:27.673 : en:Chapter 02
00:14:21.902 : en:Chapter 03
00:22:16.960 : en:Chapter 04
00:32:04.255 : en:Chapter 05
00:37:14.649 : en:Chapter 06
00:49:57.369 : en:Chapter 07
00:56:47.529 : en:Chapter 08
01:06:30.611 : en:Chapter 09
01:14:33.135 : en:Chapter 10
01:26:06.077 : en:Chapter 11
01:36:17.855 : en:Chapter 12
Скриншоты:




Время раздачи: круглогодичноИграю на аккордеоне за "Спасибо"

[Цитировать]



Показать сообщения:    

Текущее время: 05-Дек 03:29

Часовой пояс: UTC + 3


Вы не можете начинать темы
Вы не можете отвечать на сообщения
Вы не можете редактировать свои сообщения
Вы не можете удалять свои сообщения
Вы не можете голосовать в опросах
Вы не можете прикреплять файлы к сообщениям
Вы не можете скачивать файлы

!ВНИМАНИЕ!
Сайт не предоставляет электронные версии произведений, а занимается лишь коллекционированием и каталогизацией ссылок, присылаемых и публикуемых на форуме нашими читателями. Если вы являетесь правообладателем какого-либо представленного материала и не желаете, чтобы ссылка на него находилась в нашем каталоге, свяжитесь с нами, и мы незамедлительно удалим ее. Файлы для обмена на трекере предоставлены пользователями сайта, и администрация не несет ответственности за их содержание. Просьба не заливать файлы, защищенные авторскими правами, а также файлы нелегального содержания!