[ Сегодня идет свободное скачивание без начисления Download ]


Статистика раздачи
Скачал: [ 1 ]
 
   
 
Top  
 
 
КВН-2016. Высшая лига. Летний Кубок во Владивостоке (2016.10.02) HDTV [H.264/1080i] - Телекомпания: Первый канал HD
Жанр: Юмор
Ведущий: Александр Масляков.
Жюри: Константин Лавроненко, Федор Бондарчук, Валдис Пельш, Юлий Гусман, Михаил Галустян, Павел Лунгин, Сергей Светлаков
Описание:
Что такое КВН, знают, без сомнения, все. В КВН играют во всем мире, это прежде всего молодежная игра. Постоянные конкурсные задания: "Визитная карточка", "Разминка", "Конкурс капитанов", "Музыкальный конкурс", "Домашнее задание". Игру команд оценивает профессиональное жюри — люди, у которых с чувством юмора все в порядке, многие из них раньше сами играли в КВН. Среди членов жюри были Константин Эрнст, Леонид Парфенов, Юлий Гусман, Леонид Ярмольник, Валдис Пельш, Сергей Шолохов, Геннадий Хазанов и другие. Кроме самих игр проводятся ежегодные встречи: фестиваль команд КВН (с 1990 г., семь раз фестиваль проходил в г.Сочи), музыкальный фестиваль КВН, летний кубок КВН, международные товарищеские игры в КВН. Сборная КВН играет со сборными других стран. Уже состоялись игры между сборной КВН и сборными Америки, Австралии, Израиля... Игра в КВН для многих становится профессией, а многие благодаря игре связывают жизнь с искусством. Из КВН "вышли": Леонид Якубович, Михаил Марфин, Татьяна Лазарева, Олег Филимонов, Юлий Гусман и многие другие.
Продолжительность: 02:07:34
Качество видео: HDTV
Субтитры: Отсутствуют
Видео: AVC, 1920x1080 (16:9), 25.000 fps, 13.0 Mbps (0.250 bit/pixel)
Аудио: MP2, 48.0 KHz, 2 ch, 384 Kbps, CBR

Mediainfo:

Общее
Идентификатор                            : 1 (0x1)
Полное имя                               : D:\[1]\КВН\КВН-2016. Высшая лига. Летний Кубок во Владивостоке  (2016.10.02)_1080.ts
Формат                                   : MPEG-TS
Размер файла                             : 12,5 Гбайт
Продолжительность                        : 2 ч. 7 м.
Режим общего битрейта                    : Переменный
Общий поток                              : 14,0 Мбит/сек
Видео
Идентификатор                            : 4113 (0x1011)
Идентификатор меню                       : 1 (0x1)
Формат                                   : AVC
Формат/Информация                        : Advanced Video Codec
Профиль формата                          : High@L4
Параметр CABAC формата                   : Да
Параметр ReFrames формата                : 4 кадра
Идентификатор кодека                     : 27
Продолжительность                        : 2 ч. 7 м.
Битрейт                                  : 13,0 Мбит/сек
Ширина                                   : 1920 пикселей
Высота                                   : 1080 пикселей
Соотношение сторон                       : 16:9
Частота кадров                           : 25,000 кадров/сек
Цветовое пространство                    : YUV
Субдискретизация насыщенности            : 4:2:0
Битовая глубина                          : 8 бит
Тип развёртки                            : Чересстрочная
Порядок развёртки                        : Верхнее поле первое
Бит/(Пиксели*Кадры)                      : 0.250
Размер потока                            : 11,5 Гбайт (92%)
Цветовой диапазон                        : Limited
Основные цвета                           : BT.709
Характеристики трансфера                 : BT.709
Коэффициенты матрицы                     : BT.709
Аудио
Идентификатор                            : 4352 (0x1100)
Идентификатор меню                       : 1 (0x1)
Формат                                   : MPEG Audio
Версия формата                           : Version 1
Профиль формата                          : Layer 2
Идентификатор кодека                     : 3
Продолжительность                        : 2 ч. 7 м.
Вид битрейта                             : Постоянный
Битрейт                                  : 384 Кбит/сек
Каналы                                   : 2 канала
Частота                                  : 48,0 КГц
Метод сжатия                             : С потерями
Задержка видео                           : -40 мс.
Размер потока                            : 350 Мбайт (3%)
Язык                                     : Russian

Команды:

Сборная Камызякского края по КВНу (Астраханская область)
"ГородЪ Пятигорск" (сборная Ставропольского края)
"Союз" (Тюменская область)
"Детективное агентство "Лунный свет" (Белгород)
Скриншоты:

[Цитировать]



Показать сообщения:    

Текущее время: 07-Дек 17:28

Часовой пояс: UTC + 3


Вы не можете начинать темы
Вы не можете отвечать на сообщения
Вы не можете редактировать свои сообщения
Вы не можете удалять свои сообщения
Вы не можете голосовать в опросах
Вы не можете прикреплять файлы к сообщениям
Вы не можете скачивать файлы

!ВНИМАНИЕ!
Сайт не предоставляет электронные версии произведений, а занимается лишь коллекционированием и каталогизацией ссылок, присылаемых и публикуемых на форуме нашими читателями. Если вы являетесь правообладателем какого-либо представленного материала и не желаете, чтобы ссылка на него находилась в нашем каталоге, свяжитесь с нами, и мы незамедлительно удалим ее. Файлы для обмена на трекере предоставлены пользователями сайта, и администрация не несет ответственности за их содержание. Просьба не заливать файлы, защищенные авторскими правами, а также файлы нелегального содержания!