[ Сегодня идет свободное скачивание без начисления Download ]


Статистика раздачи
Нет
 
   
 
Top  
 
 
-Следы от ботинка / Boot Tracks (2012) BDRip- Русское название: Следы от ботинка
Оригинальное название: Boot Tracks
Год выпуска: 2012
Производство: США / Deed Films
Жанр: Криминал, Драма
Перевод: Двуголосый закадровый, любительский [ViruseProject]
Язык субтитров: Английский
Дата мировой премьеры: ?
Дата российской премьеры: ?
Режиссер: Дэвид Джейкобсон
Актеры: Стивен Дорфф, Мишель Монахэн, Уиллем Дефо, Тара Бак, Роберт ЛаСардо, Кэрри Розэлл, Джайда Диамонд, Адам Эпштейн, Марк Шерман, Аньес Херрманн
Описание фильма:
Недавно освободившийся из тюрьмы Чарли Ранкин ищет способ отомстить тюремному надзирателю Уильяму Петтигрю по кличке Будда. По пути он встречает утонченную, но тем не менее весьма опытную Флоренс Джейн. Вместе они пускаются в путешествие, которое постепенно отклоняется от первоначальной цели и ведет к непредсказуемой развязке.

Продолжительность: 01:31:36
Качество видео: BDRip-Видеокодек: MPEG-4 AVC/H.264
Битрейт видео: ~5276 kbps
Размер кадра: 1280 x 720
Аудиокодек: AC3 5.1 / DTS
Аудио 1: Русский, AC3 5.1, 384 kbps, 48 kHz
Аудио 2: Английский, DTS 5.1, 1510 kbps, 48 kHz-Сэмпл: Скачать-

BV

-

MediaInfo:

Общее
Уникальный идентификатор : 213430913894682434949477359082119350859 (0xA0914C7EFE63EC11A1525648A2FBCA4B)
Полное имя : D:\Films\Boot.Tracks.2012.720p.BDRip.mkv
Формат : Matroska
Версия формата : Version 2
Размер файла : 4,59 Гбайт
Продолжительность : 1 ч. 31 м.
Общий поток : 7172 Кбит/сек
Дата кодирования : UTC 2012-12-26 00:55:01
Программа кодирования : mkvmerge v5.2.0 ('I can't explain') built on Dec 18 2011 18:12:03
Библиотека кодирования : libebml v1.2.3 + libmatroska v1.3.0
Видео
Идентификатор : 1
Формат : AVC
Формат/Информация : Advanced Video Codec
Профиль формата : High@L4.1
Параметр CABAC формата : Да
Параметр ReFrames формата : 5 кадров
Идентификатор кодека : V_MPEG4/ISO/AVC
Продолжительность : 1 ч. 31 м.
Битрейт : 5293 Кбит/сек
Ширина : 1280 пикселей
Высота : 720 пикселей
Соотношение сторон : 16:9
Частота кадров : 23,976 кадра/сек
Цветовое пространство : YUV
Субдискретизация насыщенности : 4:2:0
Битовая глубина : 8 бит
Тип развёртки : Прогрессивная
Бит/(Пиксели*Кадры) : 0.240
Размер потока : 3,29 Гбайт (72%)
Библиотека кодирования : x264 core 129 r2230 1cffe9f
Настройки программы : cabac=1 / ref=5 / deblock=1:0:0 / analyse=0x3:0x133 / me=umh / subme=8 / psy=1 / psy_rd=1.00:0.00 / mixed_ref=1 / me_range=16 / chroma_me=1 / trellis=1 / 8x8dct=1 / cqm=0 / deadzone=21,11 / fast_pskip=0 / chroma_qp_offset=-2 / threads=12 / lookahead_threads=2 / sliced_threads=0 / nr=0 / decimate=1 / interlaced=0 / bluray_compat=0 / constrained_intra=0 / bframes=3 / b_pyramid=2 / b_adapt=1 / b_bias=0 / direct=1 / weightb=1 / open_gop=0 / weightp=2 / keyint=250 / keyint_min=23 / scenecut=40 / intra_refresh=0 / rc_lookahead=40 / rc=2pass / mbtree=1 / bitrate=5293 / ratetol=1.0 / qcomp=0.60 / qpmin=0 / qpmax=69 / qpstep=4 / cplxblur=20.0 / qblur=0.5 / ip_ratio=1.40 / aq=1:1.00
Язык : English
Default : Да
Forced : Нет
Аудио #1
Идентификатор : 2
Формат : AC-3
Формат/Информация : Audio Coding 3
Расширение режима : CM (complete main)
Идентификатор кодека : A_AC3
Продолжительность : 1 ч. 31 м.
Вид битрейта : Постоянный
Битрейт : 384 Кбит/сек
Каналы : 6 каналов
Расположение каналов : Front: L C R, Side: L R, LFE
Частота : 48,0 КГц
Битовая глубина : 16 бит
Метод сжатия : С потерями
Размер потока : 252 Мбайт (5%)
Заголовок : DVO [ViruseProject]
Язык : Russian
Default : Да
Forced : Нет
Аудио #2
Идентификатор : 3
Формат : DTS
Формат/Информация : Digital Theater Systems
Идентификатор кодека : A_DTS
Продолжительность : 1 ч. 31 м.
Вид битрейта : Постоянный
Битрейт : 1510 Кбит/сек
Каналы : 6 каналов
Расположение каналов : Front: L C R, Side: L R, LFE
Частота : 48,0 КГц
Битовая глубина : 24 бит
Метод сжатия : С потерями
Размер потока : 989 Мбайт (21%)
Язык : English
Default : Нет
Forced : Нет
Текст
Идентификатор : 4
Формат : UTF-8
Идентификатор кодека : S_TEXT/UTF8
Идентификатор кодека/Информация : UTF-8 Plain Text
Язык : English
Default : Нет
Forced : Нет
-Скриншоты:
-Время раздачи: С 8:00 до 22:00 до 5 скачавших

[Цитировать]



Показать сообщения:    

Текущее время: 02-Дек 22:53

Часовой пояс: UTC + 3


Вы не можете начинать темы
Вы не можете отвечать на сообщения
Вы не можете редактировать свои сообщения
Вы не можете удалять свои сообщения
Вы не можете голосовать в опросах
Вы не можете прикреплять файлы к сообщениям
Вы не можете скачивать файлы

!ВНИМАНИЕ!
Сайт не предоставляет электронные версии произведений, а занимается лишь коллекционированием и каталогизацией ссылок, присылаемых и публикуемых на форуме нашими читателями. Если вы являетесь правообладателем какого-либо представленного материала и не желаете, чтобы ссылка на него находилась в нашем каталоге, свяжитесь с нами, и мы незамедлительно удалим ее. Файлы для обмена на трекере предоставлены пользователями сайта, и администрация не несет ответственности за их содержание. Просьба не заливать файлы, защищенные авторскими правами, а также файлы нелегального содержания!