[ Сегодня идет свободное скачивание без начисления Download ]


Статистика раздачи
Нет
 
   
 
Top  
 
 
Все о мужчинах Информация о фильме
Название: Все о мужчинах
Год выпуска: 2016
Страна: Россия
Жанр: комедия-Перевод: Не требуется (русский) | iTunes
Продолжительность: 01:18:47-Режиссер: Михаил Жерневский , Леонид Марголин
В ролях: Дмитрий Нагиев, Анна Хилькевич, Игорь Верник, Сергей Белоголовцев, Грант Тохатян, Владимир Епифанцев, Екатерина Скулкина, Елена Борщева, Виктор Степанян, Ян Цапник, Елена Валюшкина, Станислав Ширин-Описание:
Это история о том, какими разными могут быть мужчины. О том, что мужчины - это, в первую очередь, сложные решения и настоящие поступки. О том, в чем мужчины могут быть сильны, а в чем комичны. О том, за что их можно и нужно любить...-Рейтинг:
-Качество: WEB-DLRip-AVC
Формат: MKV
Видео: AVC, 1024x428 (2.40:1), 2273 kbps, 24 fps, 0,216 bpp
Аудио №1: русский / AC3 / 5.1 / 48 kHz / 384 kbps
Семпл--

ОтчетМедиаИнфо

General
Unique ID : 223468158798433767552325529341688719796 (0xA81E66E09AD9B46AB98B4A011952A9B4)
Complete name : E:BC10.0.Muzh41Hax.2016.WEB-DLRip-AVC.by.White Smoke.R.G.Resident.mkv
Format : Matroska
Format version : Version 4 / Version 2
File size : 1.46 GiB
Duration : 1 h 18 min
Overall bit rate : 2 658 kb/s
Movie name : BC10.0.Muzh41Hax.2016.WEB-DLRip-AVC.by.White Smoke.R.G.Resident.mkv
Encoded date : UTC 2016-10-03 11:30:47
Writing application : mkvmerge v6.8.0 ('Theme for Great Cities') 64bit built on Mar 2 2014 21:34:26
Writing library : libebml v1.3.0 + libmatroska v1.4.1
Video
ID : 1
Format : AVC
Format/Info : Advanced Video Codec
Format profile : High@L4.1
Format settings, CABAC : Yes
Format settings, ReFrames : 12 frames
Codec ID : V_MPEG4/ISO/AVC
Duration : 1 h 18 min
Bit rate : 2 273 kb/s
Width : 1 024 pixels
Height : 428 pixels
Display aspect ratio : 2.40:1
Frame rate mode : Constant
Frame rate : 24.000 FPS
Color space : YUV
Chroma subsampling : 4:2:0
Bit depth : 8 bits
Scan type : Progressive
Bits/(Pixel*Frame) : 0.216
Stream size : 1.22 GiB (84%)
Writing library : x264 core 148 r2638 7599210
Encoding settings : cabac=1 / ref=12 / deblock=1:-3:-3 / analyse=0x3:0x113 / me=umh / subme=9 / psy=1 / psy_rd=1.00:0.00 / mixed_ref=1 / me_range=32 / chroma_me=1 / trellis=2 / 8x8dct=1 / cqm=0 / deadzone=21,11 / fast_pskip=1 / chroma_qp_offset=-2 / threads=12 / lookahead_threads=3 / sliced_threads=0 / nr=0 / decimate=1 / interlaced=0 / bluray_compat=0 / constrained_intra=0 / bframes=12 / b_pyramid=2 / b_adapt=2 / b_bias=10 / direct=1 / weightb=0 / open_gop=0 / weightp=2 / keyint=230 / keyint_min=24 / scenecut=40 / intra_refresh=0 / rc_lookahead=40 / rc=2pass / mbtree=1 / bitrate=2273 / ratetol=1.0 / qcomp=0.85 / qpmin=0 / qpmax=69 / qpstep=4 / cplxblur=20.0 / qblur=0.5 / ip_ratio=1.40 / aq=1:1.00
Language : English
Default : Yes
Forced : No
Audio
ID : 2
Format : AC-3
Format/Info : Audio Coding 3
Mode extension : CM (complete main)
Format settings, Endianness : Big
Codec ID : A_AC3
Duration : 1 h 18 min
Bit rate mode : Constant
Bit rate : 384 kb/s
Channel(s) : 6 channels
Channel positions : Front: L C R, Side: L R, LFE
Sampling rate : 48.0 kHz
Frame rate : 31.250 FPS (1536 spf)
Compression mode : Lossy
Stream size : 216 MiB (14%)
Language : Russian
Default : Yes
Forced : No

Скриншоты

[Цитировать]

Топик был перенесен из форума Новинки кинопроката в форум Комедия
Scorpio



Показать сообщения:    

Текущее время: 09-Дек 22:23

Часовой пояс: UTC + 3


Вы не можете начинать темы
Вы не можете отвечать на сообщения
Вы не можете редактировать свои сообщения
Вы не можете удалять свои сообщения
Вы не можете голосовать в опросах
Вы не можете прикреплять файлы к сообщениям
Вы не можете скачивать файлы

!ВНИМАНИЕ!
Сайт не предоставляет электронные версии произведений, а занимается лишь коллекционированием и каталогизацией ссылок, присылаемых и публикуемых на форуме нашими читателями. Если вы являетесь правообладателем какого-либо представленного материала и не желаете, чтобы ссылка на него находилась в нашем каталоге, свяжитесь с нами, и мы незамедлительно удалим ее. Файлы для обмена на трекере предоставлены пользователями сайта, и администрация не несет ответственности за их содержание. Просьба не заливать файлы, защищенные авторскими правами, а также файлы нелегального содержания!