[ Сегодня идет свободное скачивание без начисления Download ]


Статистика раздачи
Скачал: [ 1 ]
 
   
 
Top  
 
 
Перчатка Авроры [01-04 из 04] (2016) Информация о фильме
Оригинальное название: Перчатка Авроры
Год выпуска: 2016
Жанр: Детектив, мелодрама
Режиссер: Игорь Драка
В ролях: Елена Вожакина, Артем Карасев, Степан Бекетов, Сергей Кошонин, Анастасия Тюнина, Елена Радевич, Галина Бокашевская
О фильме:
Аврора, дочь богатых родителей и мать девочек-близняшек, постоянно попадает в разные истории. Она собирается замуж за учёного-историка Павла. Незадолго до свадьбы она получает в подарок старинную шкатулку с надписью "Аврора", какими-то письмами на финском и одной дамской перчаткой внутри. С помощью Павла героиня выясняет, что шкатулка и письма принадлежали знаменитой красавице пушкинских времён Авроре Шернваль, над которой, по слухам, тяготело проклятие: все любимые ею мужчины, включая отца и сына, безвременно скончались.

Страна: Россия
Студия: ГК «Приор»
Продолжительность: 4 x ~ 00:44:00
Перевод: Не требуется
Файл
Формат: AVI
Качество: HDTVRip
Видео: XviD build 73, 688x384 (16:9), 25.000 fps, ~ 1010 Kbps (~ 0.152 bit/pixel)
Звук: 48.0 kHz, MP3, 2/0 ch, 128 kbps
Субтитры: нет

МедиаИнфо

General
Complete name : Perchatka.Avrory.2016.XviD.WEB-DLRip.by.GeneralFilmSerija.01.avi
Format : AVI
Format/Info : Audio Video Interleave
File size : 372 MiB
Duration : 45mn 23s
Overall bit rate : 1 145 Kbps
Writing application : VirtualDubMod 1.5.10.3 | www.virtualdub-fr.org || (build 2550/release)
Writing library : VirtualDubMod build 2550/release
Video
ID : 0
Format : MPEG-4 Visual
Format profile : Advanced [email protected]
Format settings, BVOP : 1
Format settings, QPel : No
Format settings, GMC : No warppoints
Format settings, Matrix : Custom
Codec ID : XVID
Codec ID/Hint : XviD
Duration : 45mn 23s
Bit rate : 1 007 Kbps
Width : 688 pixels
Height : 384 pixels
Display aspect ratio : 16:9
Frame rate : 25.000 fps
Color space : YUV
Chroma subsampling : 4:2:0
Bit depth : 8 bits
Scan type : Progressive
Compression mode : Lossy
Bits/(Pixel*Frame) : 0.152
Stream size : 327 MiB (88%)
Writing library : XviD 73
Audio
ID : 1
Format : MPEG Audio
Format version : Version 1
Format profile : Layer 3
Codec ID : 55
Codec ID/Hint : MP3
Duration : 45mn 23s
Bit rate mode : Constant
Bit rate : 128 Kbps
Channel(s) : 2 channels
Sampling rate : 48.0 KHz
Compression mode : Lossy
Stream size : 41.6 MiB (11%)
Alignment : Aligned on interleaves
Interleave, duration : 40 ms (1.00 video frame)
Interleave, preload duratio : 504 ms
Writing library : LAME3.99r
Encoding settings : -m s -V 4 -q 0 -lowpass 17 -b 128

Скриншоты





[Цитировать]



Показать сообщения:    

Текущее время: 04-Дек 15:21

Часовой пояс: UTC + 3


Вы не можете начинать темы
Вы не можете отвечать на сообщения
Вы не можете редактировать свои сообщения
Вы не можете удалять свои сообщения
Вы не можете голосовать в опросах
Вы не можете прикреплять файлы к сообщениям
Вы не можете скачивать файлы

!ВНИМАНИЕ!
Сайт не предоставляет электронные версии произведений, а занимается лишь коллекционированием и каталогизацией ссылок, присылаемых и публикуемых на форуме нашими читателями. Если вы являетесь правообладателем какого-либо представленного материала и не желаете, чтобы ссылка на него находилась в нашем каталоге, свяжитесь с нами, и мы незамедлительно удалим ее. Файлы для обмена на трекере предоставлены пользователями сайта, и администрация не несет ответственности за их содержание. Просьба не заливать файлы, защищенные авторскими правами, а также файлы нелегального содержания!