[ Today is free to download without increasing Download ]

DL-List and Torrent activity
Complete: [ 1 ]
Перчатка Авроры [01-04 из 04] (2016) Информация о фильме
Оригинальное название: Перчатка Авроры
Год выпуска: 2016
Жанр: Детектив, мелодрама
Режиссер: Игорь Драка
В ролях: Елена Вожакина, Артем Карасев, Степан Бекетов, Сергей Кошонин, Анастасия Тюнина, Елена Радевич, Галина Бокашевская
О фильме:
Аврора, дочь богатых родителей и мать девочек-близняшек, постоянно попадает в разные истории. Она собирается замуж за учёного-историка Павла. Незадолго до свадьбы она получает в подарок старинную шкатулку с надписью "Аврора", какими-то письмами на финском и одной дамской перчаткой внутри. С помощью Павла героиня выясняет, что шкатулка и письма принадлежали знаменитой красавице пушкинских времён Авроре Шернваль, над которой, по слухам, тяготело проклятие: все любимые ею мужчины, включая отца и сына, безвременно скончались.

Страна: Россия
Студия: ГК «Приор»
Продолжительность: 4 x ~ 00:44:00
Перевод: Не требуется
Формат: AVI
Качество: HDTVRip
Видео: XviD build 73, 688x384 (16:9), 25.000 fps, ~ 1010 Kbps (~ 0.152 bit/pixel)
Звук: 48.0 kHz, MP3, 2/0 ch, 128 kbps
Субтитры: нет


Complete name : Perchatka.Avrory.2016.XviD.WEB-DLRip.by.GeneralFilmSerija.01.avi
Format : AVI
Format/Info : Audio Video Interleave
File size : 372 MiB
Duration : 45mn 23s
Overall bit rate : 1 145 Kbps
Writing application : VirtualDubMod | www.virtualdub-fr.org || (build 2550/release)
Writing library : VirtualDubMod build 2550/release
ID : 0
Format : MPEG-4 Visual
Format profile : Advanced Simple@L5
Format settings, BVOP : 1
Format settings, QPel : No
Format settings, GMC : No warppoints
Format settings, Matrix : Custom
Codec ID : XVID
Codec ID/Hint : XviD
Duration : 45mn 23s
Bit rate : 1 007 Kbps
Width : 688 pixels
Height : 384 pixels
Display aspect ratio : 16:9
Frame rate : 25.000 fps
Color space : YUV
Chroma subsampling : 4:2:0
Bit depth : 8 bits
Scan type : Progressive
Compression mode : Lossy
Bits/(Pixel*Frame) : 0.152
Stream size : 327 MiB (88%)
Writing library : XviD 73
ID : 1
Format : MPEG Audio
Format version : Version 1
Format profile : Layer 3
Codec ID : 55
Codec ID/Hint : MP3
Duration : 45mn 23s
Bit rate mode : Constant
Bit rate : 128 Kbps
Channel(s) : 2 channels
Sampling rate : 48.0 KHz
Compression mode : Lossy
Stream size : 41.6 MiB (11%)
Alignment : Aligned on interleaves
Interleave, duration : 40 ms (1.00 video frame)
Interleave, preload duratio : 504 ms
Writing library : LAME3.99r
Encoding settings : -m s -V 4 -q 0 -lowpass 17 -b 128



Display posts:    

Current time is: 24-Oct 02:50

All times are UTC + 3

You cannot post new topics in this forum
You cannot reply to topics in this forum
You cannot edit your posts in this forum
You cannot delete your posts in this forum
You cannot vote in polls in this forum
You cannot attach files in this forum
You cannot download files in this forum

The site does not give electronic versions of products, and is engaged only in a collecting and cataloguing of the references sent and published at a forum by our readers. If you are the legal owner of any submitted material and do not wish that the reference to it was in our catalogue, contact us and we shall immediately remove her. Files for an exchange on tracker are given by users of a site, and the administration does not bear the responsibility for their maintenance. The request to not fill in the files protected by copyrights, and also files of the illegal maintenance!