[ Сегодня идет свободное скачивание без начисления Download ]


Статистика раздачи
Нет
 
   
 
Top  
 
 
-Уимблдон / Wimbledon (2004) [1080p] BDRip
«She's the golden girl. He's the longshot. It's a match made in...»
- Русское название: Уимблдон
Оригинальное название: Wimbledon
Год выпуска: 2004
Страна: Великобритания, Франция, США
Жанр: Мелодрама, комедия, спорт
Перевод: Дублированный, закадровый двухголосый (Tycoon-Studio)
Субтитры: Английские
Режиссер: Ричард Лонкрэйн
Актеры: Пол Беттани, Кирстен Данст, Сэм Нил, Джон Фавро, Бернард Хилл, Элинор Брон, Николай Костер-Вальдау, Остин Николс, Джеймс МакЭвой, Роберт Линдсэй
Описание фильма:
Питер — типичный неудачник, ему одинаково не везет как в личной жизни, так и на профессиональном поприще. Каким-то чудом горе-спортсмену, чья фамилия находится в самом конце мирового теннисного рейтинга, удается стать участником престижного Уимблдонского турнира. Там-то он и встречает Лиззи — звезду американского тенниса, в которую безумно влюбляется. Вдохновленный обретенной любовью и собственным мастерством на корте, Питер все выше поднимается по турнирной лестнице. Еще немного, и мечта всей его жизни — выиграть чемпионский кубок — вот-вот станет реальностью, если, конечно, удача снова не изменит ему…-
Дата мировой премьеры: 13 сентября 2004
Дата российской премьеры: 4 ноября 2004, «Парадиз»
Дата выхода DVD релиза: 14 октября 2008, «Парадиз Медиа»-Релиз от:
Продолжительность: 01:37:47
Качество видео: BDRip [1080p]
Контейнер: MKV
Видеокодек: MPEG-4 AVC/H.264
Аудио кодек: Dolby Digital Audio, DTS
Видео: ~11300 kbps 1920х816 / 23.976 fps / 2.35:1 / High Profile 4.1
Аудио:
1. Dolby Digital Audio / Русский / 5.1 / 48 kHz / 448 kbps – Дублированный
2. Dolby Digital Audio / Русский / 5.1 / 48 kHz / 448 kbps – Закадровый двухголосый (Tycoon-Studio)
3. DTS / Английский / 5.1 / 48 kHz / 1510 kbps 24-bit.
-Сохранены оригинальные чаптеры как на Blu-ray.

MediaInfo

General
Unique ID : 234473848225417178134303663972537454458 (0xB0660542968E38F393E2810DC0C5CF7A)
Complete name : G:\Wimbledon.2004.x264.BDRip.1080p.HDTracker.mkv
Format : Matroska
Format version : Version 2
File size : 9.36 GiB
Duration : 1h 37mn
Overall bit rate : 13.7 Mbps
Movie name : =HDTracker= by =WhiteHorse= with =MySiLu=
Encoded date : UTC 2012-12-22 16:38:58
Writing application : mkvmerge v4.4.0 ('Die Wiederkehr') сборка от Oct 31 2010 21:52:48
Writing library : libebml v1.0.0 + libmatroska v1.0.0
Video
ID : 1
Format : AVC
Format/Info : Advanced Video Codec
Format profile : High@L4.1
Format settings, CABAC : Yes
Format settings, ReFrames : 5 frames
Codec ID : V_MPEG4/ISO/AVC
Duration : 1h 37mn
Bit rate : 11.3 Mbps
Width : 1 920 pixels
Height : 816 pixels
Display aspect ratio : 2.35:1
Frame rate : 23.976 fps
Color space : YUV
Chroma subsampling : 4:2:0
Bit depth : 8 bits
Scan type : Progressive
Bits/(Pixel*Frame) : 0.301
Stream size : 7.53 GiB (80%)
Title : Видеоряд
Writing library : x264 core 129 r2230+696+36 4446aa2 tMod+MixAQ [8-bit@4:2:0 X86_64]
Encoding settings : cabac=1 / ref=5 / deblock=1:-3:-3 / analyse=0x3:0x113 / me=umh / subme=11 / psy=1 / fade_compensate=0.20 / psy_rd=1.10:0.15 / mixed_ref=1 / me_range=48 / chroma_me=1 / trellis=2 / 8x8dct=1 / cqm=0 / deadzone=21,11 / fast_pskip=0 / chroma_qp_offset=-2 / threads=12 / lookahead_threads=2 / sliced_threads=0 / nr=0 / decimate=0 / interlaced=0 / bluray_compat=0 / constrained_intra=0 / fgo=5 / bframes=8 / b_pyramid=2 / b_adapt=2 / b_bias=0 / direct=3 / weightb=1 / open_gop=0 / weightp=2 / keyint=360 / keyint_min=1 / scenecut=40 / intra_refresh=0 / rc_lookahead=240 / rc=2pass / mbtree=1 / bitrate=11302 / ratetol=1.0 / qcomp=0.70 / qpmin=0 / qpmax=69 / qpstep=4 / cplxblur=20.0 / qblur=0.5 / vbv_maxrate=40000 / vbv_bufsize=30000 / nal_hrd=none / ip_ratio=1.40 / aq=3 / aq-strength=0.90 / aq-sensitivity=10.00 / aq-ifactor=1.00 / aq-pfactor=1.00 / aq-bfactor=1.00 / aq2=0
Audio #1
ID : 2
Format : AC-3
Format/Info : Audio Coding 3
Mode extension : CM (complete main)
Codec ID : A_AC3
Duration : 1h 37mn
Bit rate mode : Constant
Bit rate : 448 Kbps
Channel(s) : 6 channels
Channel positions : Front: L C R, Side: L R, LFE
Sampling rate : 48.0 KHz
Bit depth : 16 bits
Compression mode : Lossy
Stream size : 313 MiB (3%)
Title : Дублированный
Language : Russian
Audio #2
ID : 3
Format : AC-3
Format/Info : Audio Coding 3
Mode extension : CM (complete main)
Codec ID : A_AC3
Duration : 1h 37mn
Bit rate mode : Constant
Bit rate : 448 Kbps
Channel(s) : 6 channels
Channel positions : Front: L C R, Side: L R, LFE
Sampling rate : 48.0 KHz
Bit depth : 16 bits
Compression mode : Lossy
Stream size : 313 MiB (3%)
Title : Двухголосый (Tycoon-Studio)
Language : Russian
Audio #3
ID : 4
Format : DTS
Format/Info : Digital Theater Systems
Codec ID : A_DTS
Duration : 1h 37mn
Bit rate mode : Constant
Bit rate : 1 510 Kbps
Channel(s) : 6 channels
Channel positions : Front: L C R, Side: L R, LFE
Sampling rate : 48.0 KHz
Bit depth : 24 bits
Compression mode : Lossy
Stream size : 1.03 GiB (11%)
Title : Английский
Language : English
Text
ID : 5
Format : UTF-8
Codec ID : S_TEXT/UTF8
Codec ID/Info : UTF-8 Plain Text
Title : Английские
Language : English
Menu
00:00:00.000 : en:1. Number 119 (Main Titles)
00:07:49.969 : en:2. Checking In
00:12:41.427 : en:3. The English Wild Card
00:19:47.895 : en:3. The English Wild Card
00:25:30.362 : en:5. Serving Mush
00:31:47.906 : en:6. Misrepresentation
00:40:24.422 : en:7. Winning Team
00:47:30.431 : en:8. Sticking to the Game Plan
00:53:37.673 : en:9. Double Fault
00:58:45.147 : en:10. Love Is Zero
01:05:40.228 : en:11. Spreading the Word
01:10:58.045 : en:12. The Duel
01:16:36.884 : en:13. Pep Talk
01:21:08.405 : en:14. Center Court
01:28:01.359 : en:15. Advantage Point
01:33:00.533 : en:16. End Titles

Знаете ли вы, что...

Фильм снимался во время Уимблдонского турнира 2003 года. Актёры выходили на корт в начале матча или в конце него, как будто они были участниками соревнований. Официальные лица и зрители в этих фрагментах фильма были на самом деле официальными лицами и зрителями на турнире, а не приглашёнными статистами. Это был единственный случай за всю более чем вековую историю Уимблдонского турнира, когда такое было разрешено.
Изначально главная мужская роль предназначалась Хью Гранту.
Главная женская роль могла достаться Риз Уизерспун.
Иен Сомерхолдер рассматривался на роль Джейка Хэммонда, но режиссёр отдал предпочтение другому кандидату.
Роль одной из соперниц героини Кирстен Данст могла сыграть Мария Шарапова, но от этого было решено отказаться, поскольку издалека они обе слишком сильно походили друг на друга.
Клаус Баделт должен был стать композитором картины, и уже начал работу, но проблемы с другим его проектом «Женщиной-кошкой (2004) привели к тому, что он был вынужден уступить место Эду Шермуру.
Для того чтобы лучше соответствовать своей роли Кирстен Данст пришлось пройти серьёзную физическую подготовку.
Добиться от актеров, чтобы их игра в теннис, по крайней мере, выглядела на профессиональном уровне, оказалось намного сложнее, чем предполагалось. В итоге было решено, что актёры будут по большей части только имитировать удары по мячу, а сам мяч будет добавлен впоследствии с помощью компьютерной графики. При этом подачи актеры выполняли самостоятельно с настоящим теннисным мячом.
Сцены, показывающие зрителей столпившихся у входа на Уимблдон, на самом деле были сняты у входа в Лондонский зоопарк, только из-за того, что, по мнению создателей фильма там это выглядело интересней.
Сцены на берегу моря в английском Брайтоне были сняты в период с 1 по 6 сентября 2003 года с привлечением 250 местных жителей в качестве статистов.
Теннисным консультантом и тренером актеров был известный австралийский теннисист 80-х Пэт Кэш, выигравший в 1987 году Уимблдонский турнир, победив в финале Ивана Лендла.
В фильме появляются 9 бывших и действующих профессиональных теннисистов. Пять из них (Викас Пуна, Бетти Секуловски, Мерфи Дженсен, Алан Джонс и Ребекка Дандения) сыграли теннисистов — участников турнира. Четверо других (Джон Макинрой, Крис Эверт, Мэри Карилло и Джон Барретт) появляются в роли самих себя — спортивных комментаторов на турнире. При этом Крис Эверт и Джон Макинрой сами становились победителями Уимблдонского турнира.
История Питера Колта, показанная в фильме, во многом напоминает выступление известного хорватского теннисиста Горана Иванишевича на Уимблдонском турнире 2001 года, который выиграл его, будучи на тот момент 125-й ракеткой мира и получив специальное приглашение организаторов (wild card).
Съемки картины начались 28-го июня 2003 года на Уимблдоне и других местах Великобритании при бюджете в $ 35 миллионов сразу после того как Кирстен Данст освободилась от съемок в «Человеке-Пауке 2». Закончились съемки в начале осени того же года. Первоначальная дата начала съемок — июль 2002 года.
Рабочее название картины «Two Weeks in Love».
Этот фильм был посвящен Марку Маккормаку, известному американскому деятелю в области спорта.
Скриншоты:

Время раздачи: С 07:00 до 22:00
-Не забывайте Благодарить, это стимулирует на новые релизы!

[Цитировать]



Показать сообщения:    

Текущее время: 07-Дек 17:33

Часовой пояс: UTC + 3


Вы не можете начинать темы
Вы не можете отвечать на сообщения
Вы не можете редактировать свои сообщения
Вы не можете удалять свои сообщения
Вы не можете голосовать в опросах
Вы не можете прикреплять файлы к сообщениям
Вы не можете скачивать файлы

!ВНИМАНИЕ!
Сайт не предоставляет электронные версии произведений, а занимается лишь коллекционированием и каталогизацией ссылок, присылаемых и публикуемых на форуме нашими читателями. Если вы являетесь правообладателем какого-либо представленного материала и не желаете, чтобы ссылка на него находилась в нашем каталоге, свяжитесь с нами, и мы незамедлительно удалим ее. Файлы для обмена на трекере предоставлены пользователями сайта, и администрация не несет ответственности за их содержание. Просьба не заливать файлы, защищенные авторскими правами, а также файлы нелегального содержания!