[ Сегодня идет свободное скачивание без начисления Download ]


Статистика раздачи
Нет
 
   
 
Top  
 
 
Тэли и Толи (2015) WEB-DLRip Информация о фильме
Название: Тэли и Толи
Год выпуска: 2015
Жанр: Комедия, мелодрама
Режиссер: Александр Амиров
В ролях: Нуца Хубулава, Риналь Мухаметов, Кахи Кавсадзе, Дагун Омаев, Нанули Сараджишвили, Сослан Фидаров, Сергей Погосян, Иван Дубровский, Владислав Дёмин, Анатолий Дзиваев, Казбек Кибизов
О фильме:
Эта житейская история, происходящая в горах Северного Кавказа на границе двух деревень — осетинского Толи и грузинского Тэли, рассказывает нам о простых и наивных людях, которые, вопреки тому, что их сегодня пытаются разделить официальной границей, хотят жить в мире и согласии, не взирая на национальности и реалии времени — так, как сотни лет жили их деды и прадеды, привыкшие все конфликты решать мирным путем и по обычаям Кавказа — за большим столом с вином и песнями

Страна: Россия
Студия: ООО «Продюсерский Центр «Хорошо Продакшн»
Продолжительность: 01:14:00
Перевод: Не требуется (русский)
Файл
Формат: AVI
Качество: WEB-DLRip
Видео: XviD build 73, 688x288 (2.40:1), 24.000 fps, 1267 Kbps (0.256 bit/pixel)
Звук: 48.0 kHz, MP3, 2 ch, 128 kbps

МедиаИнфо

General
Complete name : Teli.i.Toli.2015.XviD.WEB-DLRip.by.GeneralFilm.avi
Format : AVI
Format/Info : Audio Video Interleave
File size : 743 MiB
Duration : 1h 14mn
Overall bit rate : 1 404 Kbps
Writing application : VirtualDubMod 1.5.10.3 | www.virtualdub-fr.org || (build 2550/release)
Writing library : VirtualDubMod build 2550/release
Video
ID : 0
Format : MPEG-4 Visual
Format profile : Advanced [email protected]
Format settings, BVOP : 1
Format settings, QPel : No
Format settings, GMC : No warppoints
Format settings, Matrix : Custom
Codec ID : XVID
Codec ID/Hint : XviD
Duration : 1h 14mn
Bit rate : 1 267 Kbps
Width : 688 pixels
Height : 288 pixels
Display aspect ratio : 2.40:1
Frame rate : 25.000 fps
Color space : YUV
Chroma subsampling : 4:2:0
Bit depth : 8 bits
Scan type : Progressive
Compression mode : Lossy
Bits/(Pixel*Frame) : 0.256
Stream size : 670 MiB (90%)
Writing library : XviD 73
Audio
ID : 1
Format : MPEG Audio
Format version : Version 1
Format profile : Layer 3
Codec ID : 55
Codec ID/Hint : MP3
Duration : 1h 14mn
Bit rate mode : Constant
Bit rate : 128 Kbps
Channel(s) : 2 channels
Sampling rate : 48.0 KHz
Compression mode : Lossy
Stream size : 67.8 MiB (9%)
Alignment : Aligned on interleaves
Interleave, duration : 40 ms (1.00 video frame)
Interleave, preload duratio : 504 ms
Writing library : LAME3.99r
Encoding settings : -m s -V 4 -q 0 -lowpass 17 -b 128

Скриншоты





[Цитировать]



Показать сообщения:    

Текущее время: 04-Дек 09:14

Часовой пояс: UTC + 3


Вы не можете начинать темы
Вы не можете отвечать на сообщения
Вы не можете редактировать свои сообщения
Вы не можете удалять свои сообщения
Вы не можете голосовать в опросах
Вы не можете прикреплять файлы к сообщениям
Вы не можете скачивать файлы

!ВНИМАНИЕ!
Сайт не предоставляет электронные версии произведений, а занимается лишь коллекционированием и каталогизацией ссылок, присылаемых и публикуемых на форуме нашими читателями. Если вы являетесь правообладателем какого-либо представленного материала и не желаете, чтобы ссылка на него находилась в нашем каталоге, свяжитесь с нами, и мы незамедлительно удалим ее. Файлы для обмена на трекере предоставлены пользователями сайта, и администрация не несет ответственности за их содержание. Просьба не заливать файлы, защищенные авторскими правами, а также файлы нелегального содержания!