[ Сегодня идет свободное скачивание без начисления Download ]


Статистика раздачи
Нет
 
   
 
Top  
 
 
-Райское озеро / Eden Lake (2008) BDRip-«Они всего лишь дети...»- Русское название: Райское озеро
Оригинальное название: Eden Lake
Год выпуска: 2008
Производство: Великобритания, Rollercoaster Films
Жанр: Ужасы, Триллер
Перевод: Дублированный, Двуголосый закадровый, профессиональный, Авторский одноголосый закадровый
Субтитры: Вшитые отключаемые
Язык субтитров: Русские, Английские
Дата мировой премьеры: 15 мая 2008
Дата российской премьеры: 15 января 2009, «Люксор»
Дата выхода DVD релиза: 5 февраля 2009, «Columbia/Sony»
Режиссер: Джеймс Уоткинс
Продюсер: Кристиан Колсон, Ричард Холмс, Ивана Маккиннон, ...
Актеры: Келли Рейлли, Майкл Фассбендер, Тара Эллис, Джек О'Коннелл, Финн Аткинс, Джамейн Хантер, Томас Терджус, Джеймс Берроуз, Томас Гилл (IV), Лоррэйн Брюс, Шон Дули, Джеймс Ганди, Бронсон Уэбб, Лоррэйн Стэнли, Рэйчел Гливз, Марк Девенпорт (I), Алекс Палмер, Алисса Купер (II), Элиза Элкингтон
Описание фильма:
Райское озеро - уединенное место в диком лесу для молодых парочек.
Стив и Дженни приехали на озеро, чтобы провести романтический уик-энд вдали от людей и городской суеты. Они планируют пожениться, но их мечтам не суждено сбыться. На их "лагерь" натыкается шайка тупых и агрессивных подростков, шарившая по лесу в поисках приключений...

Внимание! В переводе Михаила Чадова присутствует ненормативная лексика
Продолжительность: 01:30:58
Качество видео: BDRip
Видеокодек: MPEG-4 AVC/H.264
Битрейт видео: ~13000 kbps
Размер кадра: 1920 x 816
Аудио#1: Русский, 48 kHz, AC3, 3/2 (L,C,R,l,r) + LFE ch, ~384.00 kbps avg [Дублированный [R5]]
Аудио#2: Русский, 48 kHz, AC3, 3/2 (L,C,R,l,r) + LFE ch, ~448.00 kbps avg [Двуголосый закадровый, профессиональный]
Аудио#3: Русский, 48 kHz, AC3, 3/2 (L,C,R,l,r) + LFE ch, ~448.00 kbps avg [Авторский одноголосый закадровый [М.Чадов]]
Аудио#4: Украинский, 48 kHz, AC3, 2/0 (L,R) ch, ~192.00 kbps avg [Двуголосый закадровый, профессиональный [1+1]]
Аудио#5: Английский, 48 kHz, DTS, 3/2 (L,C,R,l,r) + LFE ch, ~1510.00 kbps avg [Оригинал]

MediaInfo

Общее
Уникальный идентификатор                 : 253943541839923264220189457922268020674 (0xBF0BBF44A769236295BFC67A7E9B3FC2)
Полное имя                               : Z:\Shared Videos\Eden.Lake.2008.BDRip.1080p.3xRus.Ukr.Eng.mkv
Формат                                   : Matroska
Версия формата                           : Version 2
Размер файла                             : 10,4 Гбайт
Продолжительность                        : 1 ч. 30 м.
Общий поток                              : 16,3 Мбит/сек
Название фильма                          : Eden Lake 2008
Дата кодирования                         : UTC 2012-11-26 19:12:25
Программа кодирования                    : mkvmerge v5.8.0 ('No Sleep / Pillow') built on Sep  2 2012 15:37:04
Библиотека кодирования                   : libebml v1.2.3 + libmatroska v1.3.0
Attachment                               : Yes
Видео
Идентификатор                            : 1
Формат                                   : AVC
Формат/Информация                        : Advanced Video Codec
Профиль формата                          : [url=mailto:High@L4.1]High@L4.1[/url]
Параметр CABAC формата                   : Да
Параметр ReFrames формата                : 5 кадров
Идентификатор кодека                     : V_MPEG4/ISO/AVC
Продолжительность                        : 1 ч. 30 м.
Битрейт                                  : 13,0 Мбит/сек
Ширина                                   : 1920 пикселей
Высота                                   : 816 пикселей
Соотношение сторон                       : 2,35:1
Режим частоты кадров                     : Постоянный
Частота кадров                           : 24,000 кадра/сек
Цветовое пространство                    : YUV
Субдискретизация насыщенности            : 4:2:0
Битовая глубина                          : 8 бит
Тип развёртки                            : Прогрессивная
Бит/(Пиксели*Кадры)                      : 0.345
Размер потока                            : 8,25 Гбайт (80%)
Заголовок                                : Eden Lake
Библиотека кодирования                   : x264 core 128 r2216kMod 198a7ea
Настройки программы                      : cabac=1 / ref=5 / deblock=1:-3:-3 / analyse=0x3:0x133 / me=umh / subme=11 / psy=1 / fade_compensate=0.00 / psy_rd=1.10:0.00 / mixed_ref=1 / me_range=48 / chroma_me=1 / trellis=2 / 8x8dct=1 / cqm=0 / deadzone=21,11 / fast_pskip=0 / chroma_qp_offset=-2 / threads=6 / lookahead_threads=1 / sliced_threads=0 / nr=0 / decimate=1 / interlaced=0 / bluray_compat=0 / constrained_intra=0 / bframes=8 / b_pyramid=2 / b_adapt=2 / b_bias=0 / direct=3 / weightb=1 / open_gop=0 / weightp=2 / keyint=240 / keyint_min=24 / scenecut=40 / intra_refresh=0 / rc_lookahead=60 / rc=crf / mbtree=0 / crf=18.0000 / qcomp=0.75 / qpmin=0 / qpmax=69 / qpstep=4 / vbv_maxrate=50000 / vbv_bufsize=62500 / crf_max=0.0 / nal_hrd=none / ip_ratio=1.40 / pb_ratio=1.20 / aq=1:0.60
Язык                                     : English
Default                                  : Да
Forced                                   : Нет
Коэффициенты матрицы                     : BT.709
Аудио #1
Идентификатор                            : 2
Формат                                   : AC-3
Формат/Информация                        : Audio Coding 3
Расширение режима                        : CM (complete main)
Параметр Endianness формата              : Big
Идентификатор кодека                     : A_AC3
Продолжительность                        : 1 ч. 30 м.
Вид битрейта                             : Постоянный
Битрейт                                  : 384 Кбит/сек
Каналы                                   : 6 каналов
Расположение каналов                     : Front: L C R, Side: L R, LFE
Частота                                  : 48,0 КГц
Битовая глубина                          : 16 бит
Метод сжатия                             : С потерями
Размер потока                            : 250 Мбайт (2%)
Заголовок                                : Дубляж
Язык                                     : Russian
Default                                  : Да
Forced                                   : Нет
Аудио #2
Идентификатор                            : 3
Формат                                   : AC-3
Формат/Информация                        : Audio Coding 3
Расширение режима                        : CM (complete main)
Параметр Endianness формата              : Big
Идентификатор кодека                     : A_AC3
Продолжительность                        : 1 ч. 30 м.
Вид битрейта                             : Постоянный
Битрейт                                  : 448 Кбит/сек
Каналы                                   : 6 каналов
Расположение каналов                     : Front: L C R, Side: L R, LFE
Частота                                  : 48,0 КГц
Битовая глубина                          : 16 бит
Метод сжатия                             : С потерями
Размер потока                            : 291 Мбайт (3%)
Заголовок                                : Двухголосый
Язык                                     : Russian
Default                                  : Нет
Forced                                   : Нет
Аудио #3
Идентификатор                            : 4
Формат                                   : AC-3
Формат/Информация                        : Audio Coding 3
Расширение режима                        : CM (complete main)
Параметр Endianness формата              : Big
Идентификатор кодека                     : A_AC3
Продолжительность                        : 1 ч. 30 м.
Вид битрейта                             : Постоянный
Битрейт                                  : 448 Кбит/сек
Каналы                                   : 6 каналов
Расположение каналов                     : Front: L C R, Side: L R, LFE
Частота                                  : 48,0 КГц
Битовая глубина                          : 16 бит
Метод сжатия                             : С потерями
Размер потока                            : 291 Мбайт (3%)
Заголовок                                : М.Чадов
Язык                                     : Russian
Default                                  : Нет
Forced                                   : Нет
Аудио #4
Идентификатор                            : 5
Формат                                   : AC-3
Формат/Информация                        : Audio Coding 3
Расширение режима                        : CM (complete main)
Параметр Endianness формата              : Big
Идентификатор кодека                     : A_AC3
Продолжительность                        : 1 ч. 30 м.
Вид битрейта                             : Постоянный
Битрейт                                  : 192 Кбит/сек
Каналы                                   : 2 канала
Расположение каналов                     : Front: L R
Частота                                  : 48,0 КГц
Битовая глубина                          : 16 бит
Метод сжатия                             : С потерями
Размер потока                            : 125 Мбайт (1%)
Заголовок                                : Двухголосый, 1+1
Язык                                     : Ukrainian
Default                                  : Нет
Forced                                   : Нет
Аудио #5
Идентификатор                            : 6
Формат                                   : DTS
Формат/Информация                        : Digital Theater Systems
Режим                                    : 16
Параметр Endianness формата              : Big
Идентификатор кодека                     : A_DTS
Продолжительность                        : 1 ч. 30 м.
Вид битрейта                             : Постоянный
Битрейт                                  : 1509 Кбит/сек
Каналы                                   : 6 каналов
Расположение каналов                     : Front: L C R, Side: L R, LFE
Частота                                  : 48,0 КГц
Битовая глубина                          : 24 бит
Метод сжатия                             : С потерями
Размер потока                            : 982 Мбайт (9%)
Заголовок                                : Английский
Язык                                     : English
Default                                  : Нет
Forced                                   : Нет
Текст #1
Идентификатор                            : 7
Формат                                   : UTF-8
Идентификатор кодека                     : S_TEXT/UTF8
Идентификатор кодека/Информация          : UTF-8 Plain Text
Заголовок                                : Русские
Язык                                     : Russian
Default                                  : Нет
Forced                                   : Нет
Текст #2
Идентификатор                            : 8
Формат                                   : UTF-8
Идентификатор кодека                     : S_TEXT/UTF8
Идентификатор кодека/Информация          : UTF-8 Plain Text
Заголовок                                : Английские
Язык                                     : English
Default                                  : Нет
Forced                                   : Нет
Текст #3
Идентификатор                            : 9
Формат                                   : UTF-8
Идентификатор кодека                     : S_TEXT/UTF8
Идентификатор кодека/Информация          : UTF-8 Plain Text
Заголовок                                : Английские - SDH
Язык                                     : English
Default                                  : Нет
Forced                                   : Нет
Меню
00:00:00.000                             : en:Chapter 1
00:06:49.000                             : en:Chapter 2
00:20:38.416                             : en:Chapter 3
00:26:03.416                             : en:Chapter 4
00:36:19.000                             : en:Chapter 5
00:47:31.083                             : en:Chapter 6
00:56:03.541                             : en:Chapter 7
01:02:51.000                             : en:Chapter 8
01:06:56.458                             : en:Chapter 9
01:12:45.000                             : en:Chapter 10
01:20:52.207                             : en:Chapter 11
01:26:29.416                             : en:Chapter 12

Рецензия:

Эта картина оставила меня в таком недоумении, что я, честно говоря, не припомню когда оставался такой неприятный осадок. Это не первый просмотренный мною фильм, в котором нет хэппи энда, но манера подачи концовки Райского Озера повергает в шок, это просто какая-то извращенная мораль режиссера. На протяжении всего фильма красной нитью скользит мессидж, что, мол, сообща можно преодолеть любые трудности, важно не бросать друга друга в беде, бороться до последнего, героиня берет кольцо у своего парня как знак и символ единства, которое должно победить зло, а пятью минутами позднее мы видим, что.....мертвого мужика жарят на костре. Как если бы этого было мало, то впоследствии иррациональный меч обрушивается на голову самой девушки, которая прошла семь кругов ада, грязная, бездыханная, трясущаяся, еле живая она преодолевает смерть только для того чтобы............снова оказаться в ее объятиях. Как это понять? Для чего нужно было делать такую концовку и смаковать самодовольство молодого чава? Это не первый английский фильм, затрагивающий проблему местных hoodies, но это точно первое кино, которое, на мой взгляд, в попытке придать сюжету как можно больше реализма напрочь утрачивает чувство меры, расставляя при этом по ходу аморальные акценты.
Скриншоты: Пожалуйста не уходите с раздачи, дайте скачать другим!!! Время раздачи: с 21:00 до 7:00

[Цитировать]



Показать сообщения:    

Текущее время: 03-Дек 01:21

Часовой пояс: UTC + 3


Вы не можете начинать темы
Вы не можете отвечать на сообщения
Вы не можете редактировать свои сообщения
Вы не можете удалять свои сообщения
Вы не можете голосовать в опросах
Вы не можете прикреплять файлы к сообщениям
Вы не можете скачивать файлы

!ВНИМАНИЕ!
Сайт не предоставляет электронные версии произведений, а занимается лишь коллекционированием и каталогизацией ссылок, присылаемых и публикуемых на форуме нашими читателями. Если вы являетесь правообладателем какого-либо представленного материала и не желаете, чтобы ссылка на него находилась в нашем каталоге, свяжитесь с нами, и мы незамедлительно удалим ее. Файлы для обмена на трекере предоставлены пользователями сайта, и администрация не несет ответственности за их содержание. Просьба не заливать файлы, защищенные авторскими правами, а также файлы нелегального содержания!