[ Сегодня идет свободное скачивание без начисления Download ]


Статистика раздачи
Скачал: [ 2 ]
 
   
 
Top  
 
 
Капсула / Capsule
Информация о фильме
Название: Капсула
Оригинальное название: Capsule
Год выхода: 2015
Жанр: фантастика, триллер, драма
Режиссер: Эндрю Мартин
В ролях: Эдмунд Кингсли, Лиза Гринвуд, Найджел Барбер, Дэвид Уайман, Мики Кольтес…
Слоган: «Один человек, одна миссия, один выбор»
О фильме: Давным-давно, в далекой-далекой галактике... Пилот английской космической капсулы, из-за неполадок с двигателем, застрял в космосе и не может вернуться домой. Помощи ждать неоткуда. надеяться можно только на себя. Справится ли наш герой и увидит свою любимую?
И во всём опять виновата Россия.

Страна: Великобритания / Ecaveo Capital Partners, Hermes Space Industries
Продолжительность: 01:31:27
Перевод: Любительский (одноголосый закадровый) [BadBajo]
Файл
Качество: WEB-DL 720p
Формат: MKV
Видео: AVC, 3423 Kb/s, 1280x544
Звук: Russian / English: AC3, 384 Kb/s (6ch)
Субтитры: English
Дополнительно: Сохранены оригинальные главы (чаптеры)

MediaInfo:

Format : Matroska
Format version : Version 4 / Version 2
File size : 2.68 GiB
Duration : 1 h 31 min
Overall bit rate : 4 193 kb/s
Movie name : Rip by basma4i
Encoded date : UTC 2016-10-04 05:47:09
Writing application : mkvmerge v9.3.1 ('Mask Machine') 64bit
Writing library : libebml v1.3.4 + libmatroska v1.4.5
Cover : Yes
Attachments : cover_land.jpg / small_cover.jpg / small_cover_land.jpg / cover.jpg
Video
ID : 1
Format : AVC
Format/Info : Advanced Video Codec
Format profile : High@L4.1
Format settings, CABAC : Yes
Format settings, ReFrames : 12 frames
Codec ID : V_MPEG4/ISO/AVC
Duration : 1 h 31 min
Bit rate : 3 423 kb/s
Width : 1 280 pixels
Height : 544 pixels
Display aspect ratio : 2.35:1
Frame rate mode : Constant
Frame rate : 24.000 FPS
Color space : YUV
Chroma subsampling : 4:2:0
Bit depth : 8 bits
Scan type : Progressive
Bits/(Pixel*Frame) : 0.205
Stream size : 2.19 GiB (82%)
Language : English
Default : Yes
Forced : No
Audio #1
ID : 2
Format : AC-3
Format/Info : Audio Coding 3
Mode extension : CM (complete main)
Format settings, Endianness : Big
Codec ID : A_AC3
Duration : 1 h 31 min
Bit rate mode : Constant
Bit rate : 384 kb/s
Channel(s) : 6 channels
Channel positions : Front: L C R, Side: L R, LFE
Sampling rate : 48.0 kHz
Frame rate : 31.250 FPS (1536 spf)
Compression mode : Lossy
Stream size : 251 MiB (9%)
Title : BadBajo
Language : Russian
Default : No
Forced : No
Audio #2
ID : 3
Format : AC-3
Format/Info : Audio Coding 3
Mode extension : CM (complete main)
Format settings, Endianness : Big
Codec ID : A_AC3
Duration : 1 h 31 min
Bit rate mode : Constant
Bit rate : 384 kb/s
Channel(s) : 6 channels
Channel positions : Front: L C R, Side: L R, LFE
Sampling rate : 48.0 kHz
Frame rate : 31.250 FPS (1536 spf)
Compression mode : Lossy
Stream size : 251 MiB (9%)
Title : Originfl
Language : English
Default : Yes
Forced : No
Text
ID : 4
Format : UTF-8
Codec ID : S_TEXT/UTF8
Codec ID/Info : UTF-8 Plain Text
Duration : 1 h 28 min
Bit rate : 53 b/s
Count of elements : 730
Stream size : 34.7 KiB (0%)
Language : English
Default : Yes
Forced : No
Menu
00:00:00.000 : en:Chapter 1
00:25:20.000 : en:Chapter 2
00:56:12.000 : en:Chapter 3
01:27:23.000 : en:Chapter 4

Скриншоты

[Цитировать]

Топик был перенесен из форума Фантастика в форум Зарубежное кино (HD Video)
Scorpio



Показать сообщения:    

Текущее время: 03-Дек 01:25

Часовой пояс: UTC + 3


Вы не можете начинать темы
Вы не можете отвечать на сообщения
Вы не можете редактировать свои сообщения
Вы не можете удалять свои сообщения
Вы не можете голосовать в опросах
Вы не можете прикреплять файлы к сообщениям
Вы не можете скачивать файлы

!ВНИМАНИЕ!
Сайт не предоставляет электронные версии произведений, а занимается лишь коллекционированием и каталогизацией ссылок, присылаемых и публикуемых на форуме нашими читателями. Если вы являетесь правообладателем какого-либо представленного материала и не желаете, чтобы ссылка на него находилась в нашем каталоге, свяжитесь с нами, и мы незамедлительно удалим ее. Файлы для обмена на трекере предоставлены пользователями сайта, и администрация не несет ответственности за их содержание. Просьба не заливать файлы, защищенные авторскими правами, а также файлы нелегального содержания!