[ Сегодня идет свободное скачивание без начисления Download ]


Статистика раздачи
Скачал: [ 2 ]
 
   
 
Top  
 
 
Морпехи / Jarhead
Информация о фильме
Название: Морпехи
Оригинальное название: Jarhead
Год выхода: 2005
Жанр: драма, военный, биография
Режиссер: Сэм Мендес
В ролях: Джейк Джилленхол, Питер Сарсгаард, Крис Купер, Джейми Фокс, Лукас Блэк, Брайан Джерати, Джейкоб Варгас, Лас Алонсо, Ивэн Джонс, Деннис Хейсбёрт
О фильме: Действие картины разворачивается во время войны в Персидском заливе. Морской пехотинец Энтони Суоффорд — потомственный военный. После курса подготовки в специальном лагере его отправляют на Ближний Восток, где идут военные действия.
Со снайперской винтовкой в руках и с тяжелым рюкзаком за плечами ему предстоит проделать нелегкий путь по пустыне, где нет спасения от невыносимой жары и иракских солдат, которые в любую минуту могут появиться на горизонте.
Суоффорд и его друзья-однополчане делают все возможное, чтобы поддержать друг друга в этой сложной обстановке. Чувствуя себя совершенно чужими в этой стране, они вынуждены сражаться с невидимым врагом за неведомые им идеалы…

Выпущено: Universal Pictures
Продолжительность: 02:02:42
Перевод: Дублированный (лицензия)
Файл
Кодек: x264
Качество: BDRip (источник: Blu-ray Disc)
Видео: 1920x816 (2,35:1), 23.976 fps, 8157 kbps
Аудио #1: AC-3, 6 ch, 448 kbps (Rus)
Аудио #2: AC-3, 6 ch, 448 kbps (Eng)
Субтитры: Русские, Английские
Скачать: сэмпл
Скриншоты

MI

Общее
Уникальный идентификатор : 219939516699625737829385967852974620243 (0xA576CF63CCF5470BA472291D25B9BE53)
Полное имя : Jarhead.2005.BDRip.1080p.Rus.Eng.mkv
Формат : Matroska
Версия формата : Version 2
Размер файла : 7,76 Гбайт
Продолжительность : 2 ч. 2 м.
Общий поток : 9053 Кбит/сек
Название фильма : Морпехи / Jarhead (2005)
Дата кодирования : UTC 2012-10-02 08:38:15
Программа кодирования : mkvmerge v5.8.0 ('No Sleep / Pillow') built on Sep 2 2012 15:37:04
Библиотека кодирования : libebml v1.2.3 + libmatroska v1.3.0
Видео
Идентификатор : 1
Формат : AVC
Формат/Информация : Advanced Video Codec
Профиль формата : [email protected]
Параметр CABAC формата : Да
Параметр ReFrames формата : 5 кадров
Идентификатор кодека : V_MPEG4/ISO/AVC
Продолжительность : 2 ч. 2 м.
Битрейт : 8157 Кбит/сек
Ширина : 1920 пикселей
Высота : 816 пикселей
Соотношение сторон : 2,35:1
Частота кадров : 23,976 кадра/сек
Цветовое пространство : YUV
Субдискретизация насыщенности : 4:2:0
Битовая глубина : 8 бит
Тип развёртки : Прогрессивная
Бит/(Пиксели*Кадры) : 0.217
Размер потока : 6,84 Гбайт (88%)
Заголовок : Release by AlexKa
Библиотека кодирования : x264 core 128 r2216 198a7ea
Настройки программы : cabac=1 / ref=5 / deblock=1:-3:-3 / analyse=0x3:0x133 / me=umh / subme=10 / psy=1 / psy_rd=1.00:0.10 / mixed_ref=1 / me_range=32 / chroma_me=1 / trellis=2 / 8x8dct=1 / cqm=0 / deadzone=21,11 / fast_pskip=0 / chroma_qp_offset=-3 / threads=12 / lookahead_threads=2 / sliced_threads=0 / nr=0 / decimate=0 / interlaced=0 / bluray_compat=0 / constrained_intra=0 / bframes=5 / b_pyramid=2 / b_adapt=2 / b_bias=0 / direct=3 / weightb=1 / open_gop=0 / weightp=2 / keyint=240 / keyint_min=23 / scenecut=40 / intra_refresh=0 / rc=2pass / mbtree=0 / bitrate=8157 / ratetol=1.0 / qcomp=0.60 / qpmin=0 / qpmax=69 / qpstep=4 / cplxblur=20.0 / qblur=0.5 / ip_ratio=1.40 / pb_ratio=1.30 / aq=1:0.80
Язык : English
Аудио #1
Идентификатор : 2
Формат : AC-3
Формат/Информация : Audio Coding 3
Расширение режима : CM (complete main)
Идентификатор кодека : A_AC3
Продолжительность : 2 ч. 2 м.
Вид битрейта : Постоянный
Битрейт : 448 Кбит/сек
Каналы : 6 каналов
Расположение каналов : Front: L C R, Side: L R, LFE
Частота : 48,0 КГц
Битовая глубина : 16 бит
Метод сжатия : С потерями
Размер потока : 393 Мбайт (5%)
Заголовок : Rus
Язык : Russian
Аудио #2
Идентификатор : 3
Формат : AC-3
Формат/Информация : Audio Coding 3
Расширение режима : CM (complete main)
Идентификатор кодека : A_AC3
Продолжительность : 2 ч. 2 м.
Вид битрейта : Постоянный
Битрейт : 448 Кбит/сек
Каналы : 6 каналов
Расположение каналов : Front: L C R, Side: L R, LFE
Частота : 48,0 КГц
Битовая глубина : 16 бит
Метод сжатия : С потерями
Размер потока : 393 Мбайт (5%)
Заголовок : Eng
Язык : English
Текст #1
Идентификатор : 4
Формат : UTF-8
Идентификатор кодека : S_TEXT/UTF8
Идентификатор кодека/Информация : UTF-8 Plain Text
Заголовок : Rus
Язык : Russian
Текст #2
Идентификатор : 5
Формат : UTF-8
Идентификатор кодека : S_TEXT/UTF8
Идентификатор кодека/Информация : UTF-8 Plain Text
Заголовок : Eng
Язык : English
Меню
00:00:00.000 : :Chapter 01
00:06:29.514 : :Chapter 02
00:12:33.878 : :Chapter 03
00:15:49.323 : :Chapter 04
00:17:35.596 : :Chapter 05
00:24:49.321 : :Chapter 06
00:32:05.006 : :Chapter 07
00:37:57.608 : :Chapter 08
00:42:42.518 : :Chapter 09
00:53:09.227 : :Chapter 10
00:57:43.877 : :Chapter 11
01:03:46.823 : :Chapter 12
01:09:27.496 : :Chapter 13
01:17:51.041 : :Chapter 14
01:22:52.384 : :Chapter 15
01:28:25.258 : :Chapter 16
01:36:19.273 : :Chapter 17
01:43:59.650 : :Chapter 18
01:49:13.838 : :Chapter 19
01:53:52.033 : :Chapter 20
02:02:42.355 : :Chapter 21

x264

x264 [info]: frame I:1285 Avg QP:17.53 size:158999
x264 [info]: frame P:42740 Avg QP:19.38 size: 66035
x264 [info]: frame B:132496 Avg QP:22.39 size: 33797

[Цитировать]

Топик был перенесен из форума Военные (зарубежные) в форум Зарубежное кино (HD Video)
Ermoha



Показать сообщения:    

Текущее время: 06-Дек 05:58

Часовой пояс: UTC + 3


Вы не можете начинать темы
Вы не можете отвечать на сообщения
Вы не можете редактировать свои сообщения
Вы не можете удалять свои сообщения
Вы не можете голосовать в опросах
Вы не можете прикреплять файлы к сообщениям
Вы не можете скачивать файлы

!ВНИМАНИЕ!
Сайт не предоставляет электронные версии произведений, а занимается лишь коллекционированием и каталогизацией ссылок, присылаемых и публикуемых на форуме нашими читателями. Если вы являетесь правообладателем какого-либо представленного материала и не желаете, чтобы ссылка на него находилась в нашем каталоге, свяжитесь с нами, и мы незамедлительно удалим ее. Файлы для обмена на трекере предоставлены пользователями сайта, и администрация не несет ответственности за их содержание. Просьба не заливать файлы, защищенные авторскими правами, а также файлы нелегального содержания!