[ Сегодня идет свободное скачивание без начисления Download ]


Статистика раздачи
Нет
 
   
 
Top  
 
 
-День Триффидов / The Day of the Triffids (2009) BDRemux (мини-сериал)-«The human race has had its day.»- Русское название: День Триффидов
Оригинальное название: The Day of the Triffids
Год выпуска: 2009
Жанр: Ужасы, Фантастика, Боевик, Триллер
Описание фильма:
После всеобщего наблюдения необычного астрономического явления - «звездопада» большая часть людей на Земле ослепла (за исключением тех, кто по какой-либо причине не смотрел на небо во время этого явления).
Режиссер: Ник Копус
Актеры: Дюгрэй Скотт, Джоэли Ричардсон, Эдди Иззард, Брайан Кокс, Ванесса Редгрейв, Джейсон Пристли, Шэйн Тейлор, Трой Глазгоу, Нора-Джейн Нун, Адам Синклер
Продолжительность: 01:32:53 + 01:32:54
Перевод: Многоголосый закадровый, Двуголосый закадровый
Язык субтитров: Русский, Английский
-ВИДЕО:
Видеокодек: MPEG-4 AVC/H.264
Битрейт видео: ~21973 kbps & 21966 kbps
Размер кадра: 1920 x 1080
Качество видео: BDRemux-ЗВУК:
Аудио 1: Русский, DTS-HD MA 5.1, 1975 kbps & 1921 kbps, 48 kHz (DVO, CP-Digital)
Аудио 2: Русский, AC3 2.0, 192 kbps, 48 kHz (MVO, Рен.тв)
Аудио 3: Русский, AC3 2.0, 192 kbps, 48 kHz (DVO, Кубик в кубе)
Аудио 4: Английский, DTS-HD MA 5.1, 1954 kbps & 1901 kbps, 48 kHz-Сэмпл 1: Ссылка-Сэмпл 2: Ссылка-

BV 1

-

BV 2

-

Mediainfo 1:

Общее
Уникальный идентификатор : 239017728088107957837982460376932068653 (0xB3D123D57ECA261E945736977E02AD2D)
Полное имя : D:\Films\Day.Of.The.Triffids.2009.1080p.BDRemux\Day.Of.The.Triffids.2009.1080p.BDRemux.Part1.mkv
Формат : Matroska
Версия формата : Version 2
Размер файла : 17,1 Гбайт
Продолжительность : 1 ч. 32 м.
Режим общего битрейта : Переменный
Общий поток : 26,3 Мбит/сек
Дата кодирования : UTC 2012-12-22 16:38:46
Программа кодирования : mkvmerge v5.2.0 ('I can't explain') built on Dec 18 2011 18:12:03
Библиотека кодирования : libebml v1.2.3 + libmatroska v1.3.0
Видео
Идентификатор : 1
Формат : AVC
Формат/Информация : Advanced Video Codec
Профиль формата : [email protected]
Параметр CABAC формата : Да
Параметр ReFrames формата : 4 кадра
Параметр GOP формата : M=3, N=12
Идентификатор кодека : V_MPEG4/ISO/AVC
Продолжительность : 1 ч. 32 м.
Вид битрейта : Переменный
Битрейт : 22,2 Мбит/сек
Максимальный битрейт : 33,0 Мбит/сек
Ширина : 1920 пикселей
Высота : 1080 пикселей
Соотношение сторон : 16:9
Частота кадров : 24,000 кадра/сек
Цветовое пространство : YUV
Субдискретизация насыщенности : 4:2:0
Битовая глубина : 8 бит
Тип развёртки : Прогрессивная
Бит/(Пиксели*Кадры) : 0.446
Размер потока : 14,4 Гбайт (84%)
Язык : English
Default : Да
Forced : Нет
Основные цвета : BT.709-5, BT.1361, IEC 61966-2-4, SMPTE RP177
Характеристики трансфера : BT.709-5, BT.1361
Коэффициенты матрицы : BT.709-5, BT.1361, IEC 61966-2-4 709, SMPTE RP177
Аудио #1
Идентификатор : 2
Формат : DTS
Формат/Информация : Digital Theater Systems
Профиль формата : MA / Core
Идентификатор кодека : A_DTS
Продолжительность : 1 ч. 32 м.
Вид битрейта : Переменный
Битрейт : 1561 Кбит/сек / 1510 Кбит/сек
Каналы : 6 каналов
Расположение каналов : Front: L C R, Side: L R, LFE
Частота : 48,0 КГц
Битовая глубина : 16 бит
Метод сжатия : Без потерь / Lossy
Заголовок : Lossless DVO CP Digital
Язык : Russian
Default : Да
Forced : Нет
Аудио #2
Идентификатор : 3
Формат : AC-3
Формат/Информация : Audio Coding 3
Расширение режима : CM (complete main)
Идентификатор кодека : A_AC3
Продолжительность : 1 ч. 32 м.
Вид битрейта : Постоянный
Битрейт : 192 Кбит/сек
Каналы : 2 канала
Расположение каналов : Front: L R
Частота : 48,0 КГц
Битовая глубина : 16 бит
Метод сжатия : С потерями
Размер потока : 128 Мбайт (1%)
Заголовок : MVO Рен.Тв
Язык : Russian
Default : Нет
Forced : Нет
Аудио #3
Идентификатор : 4
Формат : AC-3
Формат/Информация : Audio Coding 3
Расширение режима : CM (complete main)
Идентификатор кодека : A_AC3
Продолжительность : 1 ч. 32 м.
Вид битрейта : Постоянный
Битрейт : 192 Кбит/сек
Каналы : 2 канала
Расположение каналов : Front: L R
Частота : 48,0 КГц
Битовая глубина : 16 бит
Метод сжатия : С потерями
Размер потока : 128 Мбайт (1%)
Заголовок : DVO Кубик в кубе
Язык : Russian
Default : Нет
Forced : Нет
Аудио #4
Идентификатор : 5
Формат : DTS
Формат/Информация : Digital Theater Systems
Профиль формата : MA / Core
Идентификатор кодека : A_DTS
Продолжительность : 1 ч. 32 м.
Вид битрейта : Переменный
Битрейт : 1624 Кбит/сек / 1510 Кбит/сек
Каналы : 6 каналов
Расположение каналов : Front: L C R, Side: L R, LFE
Частота : 48,0 КГц
Битовая глубина : 16 бит
Метод сжатия : Без потерь / Lossy
Заголовок : Lossless
Язык : English
Default : Нет
Forced : Нет
Текст #1
Идентификатор : 6
Формат : UTF-8
Идентификатор кодека : S_TEXT/UTF8
Идентификатор кодека/Информация : UTF-8 Plain Text
Язык : Russian
Default : Нет
Forced : Нет
Текст #2
Идентификатор : 7
Формат : UTF-8
Идентификатор кодека : S_TEXT/UTF8
Идентификатор кодека/Информация : UTF-8 Plain Text
Язык : English
Default : Нет
Forced : Нет
Меню
00:00:00.000 : en:Chapter 00
00:07:24.583 : en:Chapter 01
00:14:46.916 : en:Chapter 02
00:22:39.000 : en:Chapter 03
00:27:38.750 : en:Chapter 04
00:29:13.458 : en:Chapter 05
00:34:36.791 : en:Chapter 06
00:40:23.666 : en:Chapter 07
00:44:08.208 : en:Chapter 08
00:48:42.500 : en:Chapter 09
00:56:19.708 : en:Chapter 10
01:03:35.333 : en:Chapter 11
01:11:35.166 : en:Chapter 12
01:15:06.541 : en:Chapter 13
01:21:33.625 : en:Chapter 14
01:26:50.375 : en:Chapter 15
01:30:59.250 : en:Chapter 16
01:32:02.416 : en:Chapter 17
-

MediaInfo 2:

Общее
Уникальный идентификатор : 208475056194807579161467889382624811959 (0x9CD6D5D8BBBFCCD692A797773E4B5BB7)
Полное имя : D:\Films\Day.Of.The.Triffids.2009.1080p.BDRemux\Day.Of.The.Triffids.2009.1080p.BDRemux.Part2.mkv
Формат : Matroska
Версия формата : Version 2
Размер файла : 17,0 Гбайт
Продолжительность : 1 ч. 32 м.
Режим общего битрейта : Переменный
Общий поток : 26,2 Мбит/сек
Дата кодирования : UTC 2012-12-22 17:03:10
Программа кодирования : mkvmerge v5.2.0 ('I can't explain') built on Dec 18 2011 18:12:03
Библиотека кодирования : libebml v1.2.3 + libmatroska v1.3.0
Видео
Идентификатор : 1
Формат : AVC
Формат/Информация : Advanced Video Codec
Профиль формата : [email protected]
Параметр CABAC формата : Да
Параметр ReFrames формата : 4 кадра
Идентификатор кодека : V_MPEG4/ISO/AVC
Продолжительность : 1 ч. 32 м.
Вид битрейта : Переменный
Битрейт : 22,1 Мбит/сек
Максимальный битрейт : 33,0 Мбит/сек
Ширина : 1920 пикселей
Высота : 1080 пикселей
Соотношение сторон : 16:9
Частота кадров : 24,000 кадра/сек
Цветовое пространство : YUV
Субдискретизация насыщенности : 4:2:0
Битовая глубина : 8 бит
Тип развёртки : Прогрессивная
Бит/(Пиксели*Кадры) : 0.444
Размер потока : 14,3 Гбайт (84%)
Язык : English
Default : Да
Forced : Нет
Основные цвета : BT.709-5, BT.1361, IEC 61966-2-4, SMPTE RP177
Характеристики трансфера : BT.709-5, BT.1361
Коэффициенты матрицы : BT.709-5, BT.1361, IEC 61966-2-4 709, SMPTE RP177
Аудио #1
Идентификатор : 2
Формат : DTS
Формат/Информация : Digital Theater Systems
Профиль формата : MA / Core
Идентификатор кодека : A_DTS
Продолжительность : 1 ч. 32 м.
Вид битрейта : Переменный
Битрейт : 1561 Кбит/сек / 1510 Кбит/сек
Каналы : 6 каналов
Расположение каналов : Front: L C R, Side: L R, LFE
Частота : 48,0 КГц
Битовая глубина : 16 бит
Метод сжатия : Без потерь / Lossy
Заголовок : Lossless DVO CP Digital
Язык : Russian
Default : Да
Forced : Нет
Аудио #2
Идентификатор : 3
Формат : AC-3
Формат/Информация : Audio Coding 3
Расширение режима : CM (complete main)
Идентификатор кодека : A_AC3
Продолжительность : 1 ч. 32 м.
Вид битрейта : Постоянный
Битрейт : 192 Кбит/сек
Каналы : 2 канала
Расположение каналов : Front: L R
Частота : 48,0 КГц
Битовая глубина : 16 бит
Метод сжатия : С потерями
Размер потока : 128 Мбайт (1%)
Заголовок : MVO Ren.tv
Язык : Russian
Default : Нет
Forced : Нет
Аудио #3
Идентификатор : 4
Формат : AC-3
Формат/Информация : Audio Coding 3
Расширение режима : CM (complete main)
Идентификатор кодека : A_AC3
Продолжительность : 1 ч. 32 м.
Вид битрейта : Постоянный
Битрейт : 192 Кбит/сек
Каналы : 2 канала
Расположение каналов : Front: L R
Частота : 48,0 КГц
Битовая глубина : 16 бит
Метод сжатия : С потерями
Размер потока : 128 Мбайт (1%)
Заголовок : DVO Кубик в кубе
Язык : Russian
Default : Нет
Forced : Нет
Аудио #4
Идентификатор : 5
Формат : DTS
Формат/Информация : Digital Theater Systems
Профиль формата : MA / Core
Идентификатор кодека : A_DTS
Продолжительность : 1 ч. 32 м.
Вид битрейта : Переменный
Битрейт : 1606 Кбит/сек / 1510 Кбит/сек
Каналы : 6 каналов
Расположение каналов : Front: L C R, Side: L R, LFE
Частота : 48,0 КГц
Битовая глубина : 16 бит
Метод сжатия : Без потерь / Lossy
Заголовок : Lossless
Язык : English
Default : Нет
Forced : Нет
Текст #1
Идентификатор : 6
Формат : UTF-8
Идентификатор кодека : S_TEXT/UTF8
Идентификатор кодека/Информация : UTF-8 Plain Text
Язык : Russian
Default : Нет
Forced : Нет
Текст #2
Идентификатор : 7
Формат : UTF-8
Идентификатор кодека : S_TEXT/UTF8
Идентификатор кодека/Информация : UTF-8 Plain Text
Язык : English
Default : Нет
Forced : Нет
Меню
00:00:00.000 : en:Chapter 00
00:01:08.166 : en:Chapter 01
00:05:14.416 : en:Chapter 02
00:09:21.541 : en:Chapter 03
00:14:58.000 : en:Chapter 04
00:21:37.625 : en:Chapter 05
00:24:52.583 : en:Chapter 06
00:29:08.500 : en:Chapter 07
00:33:51.125 : en:Chapter 08
00:39:11.166 : en:Chapter 09
00:46:48.416 : en:Chapter 10
00:53:23.416 : en:Chapter 11
00:58:19.791 : en:Chapter 12
01:03:25.583 : en:Chapter 13
01:10:58.250 : en:Chapter 14
01:16:18.000 : en:Chapter 15
01:20:58.291 : en:Chapter 16
01:25:28.791 : en:Chapter 17
01:30:38.666 : en:Chapter 18
01:32:02.291 : en:Chapter 19
-Скриншоты:part 1 -part 2 -Спасибо pyha and baggio-Время раздачи: С 8:00 до 22:00 до 5 скачавших

[Цитировать]



Показать сообщения:    

Текущее время: 04-Дек 07:02

Часовой пояс: UTC + 3


Вы не можете начинать темы
Вы не можете отвечать на сообщения
Вы не можете редактировать свои сообщения
Вы не можете удалять свои сообщения
Вы не можете голосовать в опросах
Вы не можете прикреплять файлы к сообщениям
Вы не можете скачивать файлы

!ВНИМАНИЕ!
Сайт не предоставляет электронные версии произведений, а занимается лишь коллекционированием и каталогизацией ссылок, присылаемых и публикуемых на форуме нашими читателями. Если вы являетесь правообладателем какого-либо представленного материала и не желаете, чтобы ссылка на него находилась в нашем каталоге, свяжитесь с нами, и мы незамедлительно удалим ее. Файлы для обмена на трекере предоставлены пользователями сайта, и администрация не несет ответственности за их содержание. Просьба не заливать файлы, защищенные авторскими правами, а также файлы нелегального содержания!