[ Сегодня идет свободное скачивание без начисления Download ]


Статистика раздачи
Нет
 
   
 
Top  
 
 
-Легенды осени / Legends Of The Fall (1994) BDRip- Русское название: Легенды осени
Оригинальное название: Legends Of The Fall
Год выпуска: 1994
Страна: США
Жанр: Драма
Описание фильма:
«Некоторые люди очень ясно слышат свой внутренний голос, и живут так, как он им подсказывает. Такие люди сходят с ума. Или становятся легендами». Так начинается история семьи Ладлоу — стремительный и романтический рассказ о трех братьях, их отце и молодой и неотразимой женщине, которая роковым образом изменяет жизнь каждого из них.
С детства трое братьев неразлучны, однако они еще не подозревают, по какой тропе страстей и насилия поведет жизнь каждого из них.
Сквозь ужасы Первой Мировой, сквозь потерянные годы, последовавшие за войной, через любовь и потери, предательство и надежду. И в центре всегда оказывался недосягаемый, непредсказуемый Тристан.

Режиссер: Эдвард Цвик / Edward Zwick
Актеры: Брэд Питт, Энтони Хопкинс, Эйдан Куинн, Джулия Ормонд, Генри Томас, Карина Ломбард, Гордон Тутусис
Продолжительность: 2:12:49
Перевод:
• Профессиональный (полное дублирование)
• Профессиональный (многоголосый закадровый)
• Авторский (одноголосый закадровый) - Живов

Язык субтитров: Русский, английский
Вид субтитров: Вшитые отключаемые- -Дата мировой премьеры: 16 декабря 1994
Дата выхода DVD релиза: 5 августа 2010, «Columbia/Sony»
Дата выхода Blu-Ray релиза: 7 апреля 2011, «Columbia/Sony»
Видеокодек: MPEG-4 AVC/H.264
Битрейт видео: ~13,1 Мбит/сек
Размер кадра: 1920x1040
Качество видео: BDRip 1080p
Контейнер: MKV
Аудиокодек: DTS , AC3
Аудио #1: Русский ( DTS / 5.1 / 48 kHz / 755 kbps ) - Дубляж
Аудио #2: Русский (АС3 / 5.1 / 48 kHz / 384 kbps ) - Многоголосый закадровый
Аудио #3: Русский ( DTS / 5.1 / 48 kHz / 755 kbps ) - Одноголосый закадровый
Аудио #4: Английский ( DTS / 5.1 / 48 kHz / 1510 kbps )-

Награды и номинации


Оскар, 1995 год
Победитель (1)
Лучшая работа оператора
Номинации (2):
Лучшие декорации
Лучший звук



Золотой глобус, 1995 год
Номинации (4):
Лучший фильм (драма)
Лучшая мужская роль (драма) (Брэд Питт)
Лучший режиссер (Эдвард Цвик)
Лучший саундтрек
-

Из книги «3500 кинорецензий»

Не ожидала, что фильм может произвести на меня такое впечатление.
Это больше, чем просто фильм. На примере одной семьи жизнь показана во всех гранях и через все возможные призмы, все чувства всегда накалены до предела. Порой думаешь, так не бывает. Но судьба все решает по-своему.
Впечатляет все — от актерской игры и пейзажей до сценария и персонажей. Характеры, созданные на экране поражают глубиной.
Картина задевает душу за то живое, что в ней, может быть, осталось.
Больше, чем гениально…
-

Mediainfo

Общее
Уникальный идентификатор : 314040748477796701569497745592783707428 (0xEC420C51ED7B2B410DC1E51C4BC79D24)
Полное имя : Legends.of.the.Fall.1994.BDrip.1080p..mkv
Формат : Matroska
Версия формата : Version 2
Размер файла : 15,3 Гбайт
Продолжительность : 2 ч. 12 м.
Общий поток : 16,5 Мбит/сек
Название фильма : Legends Of The Fall
Дата кодирования : UTC 2011-01-12 12:31:53
Программа кодирования : mkvmerge v3.2.0 ('Beginnings') built on Feb 14 2010 20:54:22
Библиотека кодирования : libebml v0.7.8 + libmatroska v0.8.1
Видео
Идентификатор : 1
Формат : AVC
Формат/Информация : Advanced Video Codec
Профиль формата : High@L4.1
Параметр CABAC формата : Да
Параметр ReFrames формата : 4 кадра
Идентификатор кодека : V_MPEG4/ISO/AVC
Продолжительность : 2 ч. 12 м.
Битрейт : 13,1 Мбит/сек
Ширина : 1920 пикселей
Высота : 1040 пикселей
Соотношение сторон : 1,85:1
Режим частоты кадров : Постоянный
Частота кадров : 23,976 кадра/сек
Цветовое пространство : YUV
Субдискретизация насыщенности : 4:2:0
Битовая глубина : 8 бит
Тип развёртки : Прогрессивная
Бит/(Пиксели*Кадры) : 0.274
Размер потока : 11,9 Гбайт (77%)
Библиотека кодирования : x264 core 107 r1766 f9f0035
Настройки программы : cabac=1 / ref=4 / deblock=1:-3:-3 / analyse=0x3:0x113 / me=umh / subme=10 / psy=1 / psy_rd=1.00:0.00 / mixed_ref=1 / me_range=48 / chroma_me=1 / trellis=2 / 8x8dct=1 / cqm=2 / deadzone=21,11 / fast_pskip=0 / chroma_qp_offset=-1 / threads=12 / sliced_threads=0 / nr=0 / decimate=1 / interlaced=0 / constrained_intra=0 / bframes=6 / b_pyramid=2 / b_adapt=2 / b_bias=0 / direct=3 / weightb=1 / open_gop=0 / weightp=2 / keyint=250 / keyint_min=23 / scenecut=40 / intra_refresh=0 / rc_lookahead=60 / rc=2pass / mbtree=1 / bitrate=13130 / ratetol=1.0 / qcomp=0.70 / qpmin=10 / qpmax=51 / qpstep=4 / cplxblur=20.0 / qblur=0.5 / vbv_maxrate=45000 / vbv_bufsize=40000 / ip_ratio=1.40 / aq=1:0.90 / nal_hrd=none
Язык : English
Default : Да
Forced : Нет
Аудио #1
Идентификатор : 2
Формат : DTS
Формат/Информация : Digital Theater Systems
Идентификатор кодека : A_DTS
Продолжительность : 2 ч. 12 м.
Вид битрейта : Постоянный
Битрейт : 755 Кбит/сек
Каналы : 6 каналов
Расположение каналов : Front: L C R, Side: L R, LFE
Частота : 48,0 КГц
Битовая глубина : 16 бит
Метод сжатия : С потерями
Размер потока : 717 Мбайт (5%)
Заголовок : Dubb R5 (DTS 5.1)
Язык : Russian
Default : Да
Forced : Нет
Аудио #2
Идентификатор : 3
Формат : AC-3
Формат/Информация : Audio Coding 3
Расширение режима : CM (complete main)
Параметр Endianness формата : Big
Идентификатор кодека : A_AC3
Продолжительность : 2 ч. 12 м.
Вид битрейта : Постоянный
Битрейт : 384 Кбит/сек
Каналы : 6 каналов
Расположение каналов : Front: L C R, Side: L R, LFE
Частота : 48,0 КГц
Битовая глубина : 16 бит
Метод сжатия : С потерями
Размер потока : 365 Мбайт (2%)
Заголовок : Multy R5 (DD 5.1)
Язык : Russian
Default : Нет
Forced : Нет
Аудио #3
Идентификатор : 4
Формат : DTS
Формат/Информация : Digital Theater Systems
Идентификатор кодека : A_DTS
Продолжительность : 2 ч. 12 м.
Вид битрейта : Постоянный
Битрейт : 755 Кбит/сек
Каналы : 6 каналов
Расположение каналов : Front: L C R, Side: L R, LFE
Частота : 48,0 КГц
Битовая глубина : 16 бит
Метод сжатия : С потерями
Размер потока : 717 Мбайт (5%)
Заголовок : Author, Zhivov (DTS 5.1)
Язык : Russian
Default : Нет
Forced : Нет
Аудио #4
Идентификатор : 5
Формат : DTS
Формат/Информация : Digital Theater Systems
Идентификатор кодека : A_DTS
Продолжительность : 2 ч. 12 м.
Вид битрейта : Постоянный
Битрейт : 1510 Кбит/сек
Каналы : 6 каналов
Расположение каналов : Front: L C R, Side: L R, LFE
Частота : 48,0 КГц
Битовая глубина : 24 бит
Метод сжатия : С потерями
Размер потока : 1,40 Гбайт (9%)
Заголовок : Original (DTS 5.1)
Язык : English
Default : Нет
Forced : Нет
Текст #1
Идентификатор : 6
Формат : UTF-8
Идентификатор кодека : S_TEXT/UTF8
Идентификатор кодека/Информация : UTF-8 Plain Text
Язык : Russian
Default : Нет
Forced : Нет
Текст #2
Идентификатор : 7
Формат : UTF-8
Идентификатор кодека : S_TEXT/UTF8
Идентификатор кодека/Информация : UTF-8 Plain Text
Язык : English
Default : Нет
Forced : Нет
-Скриншоты:




Время раздачи: с 10:00 до 23:00 ежедневно

[Цитировать]



Показать сообщения:    

Текущее время: 10-Дек 19:38

Часовой пояс: UTC + 3


Вы не можете начинать темы
Вы не можете отвечать на сообщения
Вы не можете редактировать свои сообщения
Вы не можете удалять свои сообщения
Вы не можете голосовать в опросах
Вы не можете прикреплять файлы к сообщениям
Вы не можете скачивать файлы

!ВНИМАНИЕ!
Сайт не предоставляет электронные версии произведений, а занимается лишь коллекционированием и каталогизацией ссылок, присылаемых и публикуемых на форуме нашими читателями. Если вы являетесь правообладателем какого-либо представленного материала и не желаете, чтобы ссылка на него находилась в нашем каталоге, свяжитесь с нами, и мы незамедлительно удалим ее. Файлы для обмена на трекере предоставлены пользователями сайта, и администрация не несет ответственности за их содержание. Просьба не заливать файлы, защищенные авторскими правами, а также файлы нелегального содержания!