[ Сегодня идет свободное скачивание без начисления Download ]


Статистика раздачи
Нет
 
   
 
Top  
 
 
-Эффект бабочки (Режиссёрская версия) / The Butterfly Effect (Director's Cut) (2004) BDRemux- Русское название: Эффект бабочки
Оригинальное название: The Butterfly Effect
Год выпуска: 2004
Жанр: Фантастика, Триллер, Драма
Описание фильма:
Мальчик Эван перенял от своего отца-психопата, ныне запертого в доме для умалишённых, странную болезнь — он не помнит некоторых эпизодов своей жизни, причем в эти моменты происходили довольно странные, а то и ужасные, события. Возмужав и поступив в колледж, Эван делает удивительное открытие. Читая дневники, которые он писал в детстве по совету врача, Эван может возвращаться в детство и своими действиями изменять будущее.
Режиссер: Эрик Бресс, Дж. Макки Грубер
Актеры: Эштон Катчер, Мелора Уолтерс, Эми Смарт, Элден Хенсон, Уильям Ли Скотт, Джон Патрик Амедори, Ирен Горовая, Кевин Шмидт, Джесси Джеймс, Логан Лерман
Продолжительность: 02:04:22
Перевод: Дублированный / Многоголосый закадровый

Видеокодек: MPEG-4 AVC/H.264
Битрейт видео: ~15000 kbps
Размер кадра: 1920x1080
Качество видео: BDRemux
Аудио:
1. DTS Audio / 5.1 / 48 kHz / 1536 kbps / 24-bit - Дублированный + вставки из многоголоски
2. Dolby Digital Audio / 5.1 / 48 kHz / 448 kbps / 16-bit - Многоголосый закадровый (Tycoon)
3. DTS-HD Master Audio / 5.1 / 48 kHz / 3568 kbps / 24-bit - Английский
Субтитры: Русские

MediaInfo:

Общее
Уникальный идентификатор : 186249136220191404750094791427956515782 (0x8C1E47631FEA383D8988DF536991A3C6)
Полное имя : Y:\Эффект бабочки 1,2,3\Эффект бабочки (Режиссёрская версия) Butterfly Effect (Directors Cut) (2004) BDRemux 1080p.mkv
Формат : Matroska
Версия формата : Version 2
Размер файла : 17,2 Гбайт
Продолжительность : 2 ч. 4 м.
Режим общего битрейта : Переменный
Общий поток : 19,8 Мбит/сек
Дата кодирования : UTC 2012-11-10 08:20:48
Программа кодирования : mkvmerge v5.8.0 ('No Sleep / Pillow') built on Sep 2 2012 15:37:04
Библиотека кодирования : libebml v1.2.3 + libmatroska v1.3.0
Видео
Идентификатор : 1
Формат : AVC
Формат/Информация : Advanced Video Codec
Профиль формата : [email protected]
Параметр CABAC формата : Да
Параметр ReFrames формата : 4 кадра
Параметр GOP формата : M=3, N=12
Режим смешивания : Container [email protected]
Идентификатор кодека : V_MPEG4/ISO/AVC
Продолжительность : 2 ч. 4 м.
Вид битрейта : Переменный
Максимальный битрейт : 30,0 Мбит/сек
Ширина : 1920 пикселей
Высота : 1080 пикселей
Соотношение сторон : 16:9
Режим частоты кадров : Постоянный
Частота кадров : 23,976 кадра/сек
Стандарт вещания : NTSC
Цветовое пространство : YUV
Субдискретизация насыщенности : 4:2:0
Битовая глубина : 8 бит
Тип развёртки : Прогрессивная
Заголовок : Эффект бабочки (Режиссёрская версия) Butterfly Effect (Directors Cut) (2004) BDRemux 1080p
Язык : English
Default : Да
Forced : Нет
Основные цвета : BT.709
Характеристики трансфера : BT.709
Коэффициенты матрицы : BT.709
Аудио #1
Идентификатор : 2
Формат : DTS
Формат/Информация : Digital Theater Systems
Режим : 16
Параметр Endianness формата : Big
Режим смешивания : Header stripping
Идентификатор кодека : A_DTS
Продолжительность : 2 ч. 4 м.
Вид битрейта : Постоянный
Битрейт : 1510 Кбит/сек
Каналы : 6 каналов
Расположение каналов : Front: L C R, Side: L R, LFE
Частота : 48,0 КГц
Битовая глубина : 24 бит
Метод сжатия : С потерями
Размер потока : 1,31 Гбайт (8%)
Заголовок : Дубляж DTS 1536
Язык : Russian
Default : Да
Forced : Да
Аудио #2
Идентификатор : 3
Формат : AC-3
Формат/Информация : Audio Coding 3
Расширение режима : CM (complete main)
Параметр Endianness формата : Big
Режим смешивания : Header stripping
Идентификатор кодека : A_AC3
Продолжительность : 2 ч. 4 м.
Вид битрейта : Постоянный
Битрейт : 448 Кбит/сек
Каналы : 6 каналов
Расположение каналов : Front: L C R, Side: L R, LFE
Частота : 48,0 КГц
Битовая глубина : 16 бит
Метод сжатия : С потерями
Размер потока : 399 Мбайт (2%)
Заголовок : Профессиональный (Tycoon)
Язык : Russian
Default : Нет
Forced : Нет
Аудио #3
Идентификатор : 4
Формат : DTS
Формат/Информация : Digital Theater Systems
Профиль формата : MA / Core
Режим : 16
Параметр Endianness формата : Big
Режим смешивания : Header stripping
Идентификатор кодека : A_DTS
Продолжительность : 2 ч. 4 м.
Вид битрейта : Переменный
Битрейт : Неизвестно / 1509 Кбит/сек
Каналы : 6 каналов
Расположение каналов : Front: L C R, Side: L R, LFE
Частота : 48,0 КГц
Битовая глубина : 24 бит
Метод сжатия : Без потерь / Lossy
Заголовок : DTS-HD Master Audio 5.1 3568 kbps Lossless
Язык : English
Default : Нет
Forced : Нет
Текст
Идентификатор : 5
Формат : UTF-8
Идентификатор кодека : S_TEXT/UTF8
Идентификатор кодека/Информация : UTF-8 Plain Text
Заголовок : Русские
Язык : Russian
Default : Нет
Forced : Нет
Скриншоты:
Эффект бабочки 2 / The Butterfly Effect 2 (2006) BDRemux- Русское название: Эффект бабочки 2
Оригинальное название: The Butterfly Effect 2
Год выпуска: 2006
Жанр: Фантастика, Триллер, Драма
Описание фильма:
Выжив после ужасного несчастного случая, в котором погибли его подружка Джули и двое лучших друзей — Аманда и Тревор — Ник Ларсон обнаружил, что он обладает уникальной способностью возвращаться в прошлое с помощью фотографий. Ник решает спасти друзей и любимую, но любое вмешательство в прошлое порой непредсказуемым образом сказывается на будущем…
Режиссер: Джон Р. Леонетти
Актеры: Эрик Лайвли, Эрика Дюранс, Дастин Миллиган, Джина Холден, Дэвид Льюис, Эндрю Эйрли, Крис Готье, Сьюзэн Хоган, ДжейАр Борн, Линдсэй Максвелл
Продолжительность: 01:32:20
Перевод: Многоголосый закадровый

Видеокодек: MPEG-4 AVC/H.264
Битрейт видео: ~26000 kbps
Размер кадра: 1920x1080
Качество видео: BDRemux
Аудиокодек:
1. DTS Audio / 5.1 / 48 kHz / 768 kbps / 24-bit - Многоголосый закадровый (CP Digital)
2. LPCM Audio / 7.1 / 48 kHz / 6144 kbps / 16-bit - Английский
Субтитры: Русские

MediaInfo:

Общее
Идентификатор : 1 (0x1)
Полное имя : Y:\Эффект бабочки 1,2,3\Эффект Бабочки 2 (The Butterfly Effect 2) (2006) BDRemux 1080p.m2ts
Формат : BDAV
Формат/Информация : Blu-ray Video
Размер файла : 22,3 Гбайт
Продолжительность : 1 ч. 32 м.
Режим общего битрейта : Переменный
Общий поток : 34,5 Мбит/сек
Максимальный общий битрейт : 35,5 Мбит/сек
Видео
Идентификатор : 4113 (0x1011)
Идентификатор меню : 1 (0x1)
Формат : AVC
Формат/Информация : Advanced Video Codec
Профиль формата : [email protected]
Параметр CABAC формата : Да
Параметр ReFrames формата : 2 кадра
Идентификатор кодека : 27
Продолжительность : 1 ч. 32 м.
Вид битрейта : Постоянный
Битрейт : 26,0 Мбит/сек
Ширина : 1920 пикселей
Высота : 1080 пикселей
Соотношение сторон : 16:9
Частота кадров : 23,976 кадра/сек
Цветовое пространство : YUV
Субдискретизация насыщенности : 4:2:0
Битовая глубина : 8 бит
Тип развёртки : Прогрессивная
Бит/(Пиксели*Кадры) : 0.523
Размер потока : 16,9 Гбайт (76%)
Аудио #1
Идентификатор : 4352 (0x1100)
Идентификатор меню : 1 (0x1)
Формат : DTS
Формат/Информация : Digital Theater Systems
Режим : 16
Параметр Endianness формата : Big
Идентификатор кодека : 130
Продолжительность : 1 ч. 32 м.
Вид битрейта : Постоянный
Битрейт : 755 Кбит/сек
Каналы : 6 каналов
Расположение каналов : Front: L C R, Side: L R, LFE
Частота : 48,0 КГц
Битовая глубина : 24 бит
Метод сжатия : С потерями
Задержка видео : -83 мс.
Размер потока : 498 Мбайт (2%)
Язык : Russian
Аудио #2
Идентификатор : 4353 (0x1101)
Идентификатор меню : 1 (0x1)
Формат : PCM
Параметр Endianness формата : Big
Параметр Sign формата : Signed
Режим смешивания : Blu-ray
Идентификатор кодека : 128
Продолжительность : 1 ч. 32 м.
Вид битрейта : Постоянный
Битрейт : 6144 Кбит/сек
Каналы : 8 каналов
Расположение каналов : Front: L C R, Side: L R, Back: L R, LFE
Частота : 48,0 КГц
Битовая глубина : 16 бит
Задержка видео : -83 мс.
Размер потока : 3,96 Гбайт (18%)
Язык : English
Текст
Идентификатор : 4608 (0x1200)
Идентификатор меню : 1 (0x1)
Формат : PGS
Идентификатор кодека : 144
Язык : Russian
Скриншоты:
Эффект бабочки 3: Откровение / The Butterfly Effect 3: Revelation (2009) BDRemux- Русское название: Эффект бабочки 3: Откровение
Оригинальное название: The Butterfly Effect 3: Revelations
Год выпуска: 2009
Жанр: Фантастика, Триллер, Драма
Описание фильма:
Используя свой дар, возвращаться в прошлое, Сэм помогает бороться с преступностью и спасает жизни. Но как-то раз, выручая свою первую любовь, Сэм случайно оставляет дыру во времени и высвобождает опасного серийного убийцу…
Режиссер: Сет Гроссман
Актеры: Крис Кармак, Рэйчел Майнер, Мелисса Джонс, Кевин Йон, Линч Р. Трэвис, Хью Магвайр, Ричард Уилкинсон, Шантель Джиакалоне, Миа Серафино, Сара Хабель
Продолжительность: 01:30:17
Перевод: Многоголосый закадровый

Видеокодек: VC-1 (WMV3 / WMVA / WVC -1
Битрейт видео: ~16600 kbps
Размер кадра: 1920x1080
Качество видео: BDRemux
Аудиокодек:
1. Dolby Digital Audio / 5.1 / 48 kHz / 384 kbps / 16-bit - Многоголосый закадровый (Lizard Cinema Trade)
2. DTS Audio / 5.1 / 48 kHz / 1536 kbps / 24-bit - Английский
Субтитры: Русские, английские

MediaInfo:

Общее
Уникальный идентификатор : 200965886665489028751206720216688342467 (0x97309F34602D8D15BA67CFA83475B5C3)
Полное имя : Y:\Эффект бабочки 1,2,3\Эффект бабочки 3. Откровение (Butterfly Effect 3. Revelations) (2009) BDRemux 1080p.mkv
Формат : Matroska
Версия формата : Version 2
Размер файла : 11,9 Гбайт
Продолжительность : 1 ч. 30 м.
Общий поток : 18,9 Мбит/сек
Дата кодирования : UTC 2009-11-13 05:05:04
Программа кодирования : mkvmerge v2.9.8 ('C'est le bon') built on Aug 13 2009 12:49:06
Библиотека кодирования : libebml v0.7.7 + libmatroska v0.8.1
Видео
Идентификатор : 1
Формат : VC-1
Профиль формата : [email protected]
Идентификатор кодека : V_MS/VFW/FOURCC / WVC1
Идентификатор кодека/Подсказка : Microsoft
Продолжительность : 1 ч. 30 м.
Битрейт : 16,6 Мбит/сек
Ширина : 1920 пикселей
Высота : 1080 пикселей
Соотношение сторон : 16:9
Режим частоты кадров : Постоянный
Частота кадров : 23,976 кадра/сек
Субдискретизация насыщенности : 4:2:0
Битовая глубина : 8 бит
Тип развёртки : Прогрессивная
Метод сжатия : С потерями
Бит/(Пиксели*Кадры) : 0.335
Размер потока : 10,5 Гбайт (88%)
Язык : English
Default : Да
Forced : Нет
Аудио #1
Идентификатор : 2
Формат : AC-3
Формат/Информация : Audio Coding 3
Расширение режима : CM (complete main)
Параметр Endianness формата : Big
Идентификатор кодека : A_AC3
Продолжительность : 1 ч. 30 м.
Вид битрейта : Постоянный
Битрейт : 384 Кбит/сек
Каналы : 6 каналов
Расположение каналов : Front: L C R, Side: L R, LFE
Частота : 48,0 КГц
Битовая глубина : 16 бит
Метод сжатия : С потерями
Размер потока : 248 Мбайт (2%)
Заголовок : AC3 5.1 384 kbps
Язык : Russian
Default : Да
Forced : Нет
Аудио #2
Идентификатор : 3
Формат : DTS
Формат/Информация : Digital Theater Systems
Режим : 16
Параметр Endianness формата : Big
Идентификатор кодека : A_DTS
Продолжительность : 1 ч. 30 м.
Вид битрейта : Постоянный
Битрейт : 1509 Кбит/сек
Каналы : 5 каналов
Расположение каналов : Front: L C R, Side: L R
Частота : 48,0 КГц
Битовая глубина : 24 бит
Метод сжатия : С потерями
Размер потока : 974 Мбайт (8%)
Заголовок : DTS 5.1 1536 kbps
Язык : English
Default : Нет
Forced : Нет
Текст #1
Идентификатор : 4
Формат : UTF-8
Идентификатор кодека : S_TEXT/UTF8
Идентификатор кодека/Информация : UTF-8 Plain Text
Язык : Russian
Default : Нет
Forced : Нет
Текст #2
Идентификатор : 5
Формат : UTF-8
Идентификатор кодека : S_TEXT/UTF8
Идентификатор кодека/Информация : UTF-8 Plain Text
Язык : English
Default : Нет
Forced : Нет
Меню
00:00:00.000 : en:00:00:00.000
00:03:11.691 : en:00:03:11.691
00:10:32.382 : en:00:10:32.382
00:20:25.391 : en:00:20:25.391
00:28:19.698 : en:00:28:19.698
00:38:33.770 : en:00:38:33.770
00:44:37.550 : en:00:44:37.550
00:53:40.592 : en:00:53:40.592
01:01:40.614 : en:01:01:40.614
01:11:32.330 : en:01:11:32.330
01:18:31.957 : en:01:18:31.957
01:20:35.914 : en:01:20:35.914
Скриншоты:

Время раздачи: с 02:00 до 08:00

[Цитировать]



Показать сообщения:    

Текущее время: 06-Дек 08:48

Часовой пояс: UTC + 3


Вы не можете начинать темы
Вы не можете отвечать на сообщения
Вы не можете редактировать свои сообщения
Вы не можете удалять свои сообщения
Вы не можете голосовать в опросах
Вы не можете прикреплять файлы к сообщениям
Вы не можете скачивать файлы

!ВНИМАНИЕ!
Сайт не предоставляет электронные версии произведений, а занимается лишь коллекционированием и каталогизацией ссылок, присылаемых и публикуемых на форуме нашими читателями. Если вы являетесь правообладателем какого-либо представленного материала и не желаете, чтобы ссылка на него находилась в нашем каталоге, свяжитесь с нами, и мы незамедлительно удалим ее. Файлы для обмена на трекере предоставлены пользователями сайта, и администрация не несет ответственности за их содержание. Просьба не заливать файлы, защищенные авторскими правами, а также файлы нелегального содержания!