[ Сегодня идет свободное скачивание без начисления Download ]


Статистика раздачи
Нет
 
   
 
Top  
 
 
-Красные огни / Red Lights (2012) BDRemux-«Готов ли ты поверить в это?»- Русское название: Красные огни
Оригинальное название: Red Lights
Год выпуска: 2012
Жанр: Ужасы, Триллер, Драма
Описание фильма:
Ученые-скептики Маргарет Мэтисон и ее ассистент, Том Бакли, занимаются разоблачением шарлатанов. Изучение паранормального приводит их к столкновению с давним противником доктора Мэтисон — человеком по имени Сильвер. Объявив о своем возвращении, Сильвер впервые за многие годы выступает перед широкой публикой. Знавшие экстрасенса люди не забыли, что незадолго до добровольного ухода Сильвера со сцены таинственной смертью погиб основной критик его деятельности.
Режиссер: Родриго Кортес
Актеры: Киллиан Мёрфи, Сигурни Уивер, Роберт Де Ниро, Тоби Джонс, Элизабет Олсен, Джоэли Ричардсон, Берн Горман, Крэйг Робертс, Питер Брук, Карен Шенас-Дэвид
Продолжительность: 01:53:40
Перевод: Дублированный [BD RUS]
Язык субтитров: Русский, Английский, Английский (SDH)
-ВИДЕО:
Видеокодек: MPEG-4 AVC/H.264
Битрейт видео: ~25957 kbps
Размер кадра: 1920 x 1080
Качество видео: BDRemux
ЗВУК:
Аудио 1: Русский, DTS 5.1, 755 kbps, 48 kHz
Аудио 2: Английский, DTS-HD MA 5.1, 1905 kbps, 48 kHz-Сэмпл: Ссылка-

Знаете ли вы, что...

В видео-лаборатории, где работает Бакли, висит копия плаката «I Want To Believe» (Я хочу верить) известного по сериалу «Секретные материалы» (1993-2002), но цитата изменена на «I Want To Understand» (Я хочу понять).
Испанский режиссер Эудженио Мира играет роль молодого Роберта Де Ниро.
-

BV

-

MediaInfo:

Общее
Уникальный идентификатор : 213333903234841445096290190228796382247 (0xA07E9D80529C7A8FAEB4F4B83B529C27)
Полное имя : D:\Films\Red_Lights.2012.1080p.BDRemux.mkv
Формат : Matroska
Версия формата : Version 2
Размер файла : 22,7 Гбайт
Продолжительность : 1 ч. 53 м.
Режим общего битрейта : Переменный
Общий поток : 28,6 Мбит/сек
Название фильма : Red Lights
Дата кодирования : UTC 2012-12-18 13:43:14
Программа кодирования : mkvmerge v5.2.0 ('I can't explain') built on Dec 18 2011 18:12:03
Библиотека кодирования : libebml v1.2.3 + libmatroska v1.3.0
Видео
Идентификатор : 1
Формат : AVC
Формат/Информация : Advanced Video Codec
Профиль формата : [email protected]
Параметр CABAC формата : Да
Параметр ReFrames формата : 4 кадра
Идентификатор кодека : V_MPEG4/ISO/AVC
Продолжительность : 1 ч. 53 м.
Вид битрейта : Переменный
Битрейт : 25,7 Мбит/сек
Максимальный битрейт : 30,0 Мбит/сек
Ширина : 1920 пикселей
Высота : 1080 пикселей
Соотношение сторон : 16:9
Частота кадров : 24,000 кадра/сек
Цветовое пространство : YUV
Субдискретизация насыщенности : 4:2:0
Битовая глубина : 8 бит
Тип развёртки : Прогрессивная
Бит/(Пиксели*Кадры) : 0.516
Размер потока : 20,4 Гбайт (90%)
Язык : English
Default : Да
Forced : Нет
Основные цвета : BT.709-5, BT.1361, IEC 61966-2-4, SMPTE RP177
Характеристики трансфера : BT.709-5, BT.1361
Коэффициенты матрицы : BT.709-5, BT.1361, IEC 61966-2-4 709, SMPTE RP177
Аудио #1
Идентификатор : 2
Формат : DTS
Формат/Информация : Digital Theater Systems
Идентификатор кодека : A_DTS
Продолжительность : 1 ч. 53 м.
Вид битрейта : Постоянный
Битрейт : 755 Кбит/сек
Каналы : 6 каналов
Расположение каналов : Front: L C R, Side: L R, LFE
Частота : 48,0 КГц
Битовая глубина : 24 бит
Метод сжатия : С потерями
Размер потока : 614 Мбайт (3%)
Заголовок : DUB
Язык : Russian
Default : Да
Forced : Нет
Аудио #2
Идентификатор : 3
Формат : DTS
Формат/Информация : Digital Theater Systems
Профиль формата : MA / Core
Идентификатор кодека : A_DTS
Продолжительность : 1 ч. 53 м.
Вид битрейта : Переменный
Битрейт : 1576 Кбит/сек / 1510 Кбит/сек
Каналы : 6 каналов
Расположение каналов : Front: L C R, Side: L R, LFE
Частота : 48,0 КГц
Битовая глубина : 16 бит
Метод сжатия : Без потерь / Lossy
Заголовок : Lossless
Язык : English
Default : Нет
Forced : Нет
Текст #1
Идентификатор : 4
Формат : UTF-8
Идентификатор кодека : S_TEXT/UTF8
Идентификатор кодека/Информация : UTF-8 Plain Text
Язык : Russian
Default : Нет
Forced : Нет
Текст #2
Идентификатор : 5
Формат : UTF-8
Идентификатор кодека : S_TEXT/UTF8
Идентификатор кодека/Информация : UTF-8 Plain Text
Язык : English
Default : Нет
Forced : Нет
Текст #3
Идентификатор : 6
Формат : UTF-8
Идентификатор кодека : S_TEXT/UTF8
Идентификатор кодека/Информация : UTF-8 Plain Text
Заголовок : SDH
Язык : English
Default : Нет
Forced : Нет
Меню
00:00:00.000 : en:Chapter 00
00:04:24.041 : en:Chapter 01
00:09:05.666 : en:Chapter 02
00:19:38.125 : en:Chapter 03
00:27:06.291 : en:Chapter 04
00:35:05.166 : en:Chapter 05
00:44:43.583 : en:Chapter 06
00:49:00.833 : en:Chapter 07
00:55:36.250 : en:Chapter 08
01:04:12.458 : en:Chapter 09
01:11:43.666 : en:Chapter 10
01:18:24.291 : en:Chapter 11
01:24:07.541 : en:Chapter 12
01:31:58.916 : en:Chapter 13
01:39:18.583 : en:Chapter 14
01:47:52.250 : en:Chapter 15
-Скриншоты:
-Время раздачи: С 8:00 до 22:00 до 5 скачавших

[Цитировать]



Показать сообщения:    

Текущее время: 06-Дек 19:09

Часовой пояс: UTC + 3


Вы не можете начинать темы
Вы не можете отвечать на сообщения
Вы не можете редактировать свои сообщения
Вы не можете удалять свои сообщения
Вы не можете голосовать в опросах
Вы не можете прикреплять файлы к сообщениям
Вы не можете скачивать файлы

!ВНИМАНИЕ!
Сайт не предоставляет электронные версии произведений, а занимается лишь коллекционированием и каталогизацией ссылок, присылаемых и публикуемых на форуме нашими читателями. Если вы являетесь правообладателем какого-либо представленного материала и не желаете, чтобы ссылка на него находилась в нашем каталоге, свяжитесь с нами, и мы незамедлительно удалим ее. Файлы для обмена на трекере предоставлены пользователями сайта, и администрация не несет ответственности за их содержание. Просьба не заливать файлы, защищенные авторскими правами, а также файлы нелегального содержания!