[ Сегодня идет свободное скачивание без начисления Download ]


Статистика раздачи
Нет
 
   
 
Top  
 
 
-Граница / Frontiere(s) (2007) BDRip--«Приготовьтесь к настоящему кошмару!»- Русское название: Граница
Оригинальное название: Frontiere(s)
Год выпуска: 2007
Страна: Франция, Швейцария
Жанр: Ужасы, Драма, Триллер, Криминал
Описание фильма:
Преступная банда после ряда дерзких ограблений скрывается от правосудия в близлежащих лесах. Скитаясь в поисках временно прибежища, они выходят к мотелю. Хозяева спасительного пристанища не отличаются гостеприимством. Но даже самые страшные фантазии не в состоянии сравниться с ожидающей несчастных реальностью. Совсем скоро неудавшиеся бандиты поймут, что стали пленниками каннибалов, которые уготовили своим постояльцам ужасную смерть…
Режиссер: Ксавье Генс
Актеры: Карина Теста, Самюэль Ле Бьян, Эстель Лефебюр, Орельен Вик, Дэвид Саракино, Чемс Дамани, Мод Форже, Амели Доре, Розин Фавей, Адель Беншериф
Продолжительность: 01:45:09
Перевод: Профессиональный (полное дублирование)
Язык субтитров: Русский, английский
Вид субтитров: Вшитые отключаемые-Внимание!!! В фильме присутствуют сцены насилия и жестокости! Рекомендуется к просмотру зрителям, достигшим 18 лет!- -Дата мировой премьеры: 1 июля 2007
Дата российской премьеры: 21 февраля 2008, «Lizard Cinema»
Дата выхода Blu-Ray релиза: 1 марта 2011, «Lizard Cinema Trade»
Видеокодек: MPEG-4 AVC/H.264
Битрейт видео: ~13,8 Мбит/сек
Размер кадра: 1920x816
Качество видео: BDRip 1080p
Контейнер: MKV
Аудиокодек: AC3
Аудио #1: Русский ( AC3 / 5.1 / 48 kHz / 640 kbps ) - Дубляж
Аудио #2: Французский ( AC3 / 5.1 / 48 kHz / 640 kbps )
-

MediaInfo

Общее
Уникальный идентификатор : 218928135212478869778154662516234034494 (0xA4B4066EC0C656D09C715BEF1D3A9D3E)
Полное имя : Граница.2007.BDRip1080p.mkv
Формат : Matroska
Версия формата : Version 4 / Version 2
Размер файла : 11,4 Гбайт
Продолжительность : 1 ч. 48 м.
Общий поток : 15,1 Мбит/сек
Название фильма : Frontiere(s) (2007) by Killbrain
Дата кодирования : UTC 2010-02-22 21:41:31
Программа кодирования : mkvmerge v5.9.0 ('On The Loose') built on Dec 9 2012 15:37:01
Библиотека кодирования : libebml v1.3.0 + libmatroska v1.4.0
Видео
Идентификатор : 1
Формат : AVC
Формат/Информация : Advanced Video Codec
Профиль формата : High@L4.1
Параметр CABAC формата : Да
Параметр ReFrames формата : 4 кадра
Идентификатор кодека : V_MPEG4/ISO/AVC
Продолжительность : 1 ч. 48 м.
Битрейт : 13,8 Мбит/сек
Ширина : 1920 пикселей
Высота : 816 пикселей
Соотношение сторон : 2,35:1
Режим частоты кадров : Постоянный
Частота кадров : 23,976 кадра/сек
Цветовое пространство : YUV
Субдискретизация насыщенности : 4:2:0
Битовая глубина : 8 бит
Тип развёртки : Прогрессивная
Бит/(Пиксели*Кадры) : 0.367
Размер потока : 10,2 Гбайт (90%)
Заголовок : Frontiere(s) (2007)
Библиотека кодирования : x264 core 128 r2216 198a7ea
Настройки программы : cabac=1 / ref=4 / deblock=1:-3:-3 / analyse=0x3:0x113 / me=umh / subme=10 / psy=1 / psy_rd=1.00:0.15 / mixed_ref=1 / me_range=16 / chroma_me=1 / trellis=2 / 8x8dct=1 / cqm=0 / deadzone=21,11 / fast_pskip=1 / chroma_qp_offset=-3 / threads=3 / lookahead_threads=1 / sliced_threads=0 / nr=0 / decimate=0 / interlaced=0 / bluray_compat=0 / constrained_intra=0 / bframes=8 / b_pyramid=2 / b_adapt=2 / b_bias=0 / direct=3 / weightb=1 / open_gop=0 / weightp=2 / keyint=240 / keyint_min=23 / scenecut=40 / intra_refresh=0 / rc_lookahead=60 / rc=2pass / mbtree=0 / bitrate=13800 / ratetol=1.0 / qcomp=0.70 / qpmin=0 / qpmax=69 / qpstep=4 / cplxblur=20.0 / qblur=0.5 / vbv_maxrate=40000 / vbv_bufsize=40000 / nal_hrd=none / ip_ratio=1.40 / pb_ratio=1.30 / aq=1:0.90
Язык : French
Default : Да
Forced : Нет
Аудио #1
Идентификатор : 2
Формат : AC-3
Формат/Информация : Audio Coding 3
Расширение режима : CM (complete main)
Параметр Endianness формата : Big
Идентификатор кодека : A_AC3
Продолжительность : 1 ч. 48 м.
Вид битрейта : Постоянный
Битрейт : 640 Кбит/сек
Каналы : 6 каналов
Расположение каналов : Front: L C R, Side: L R, LFE
Частота : 48,0 КГц
Битовая глубина : 16 бит
Метод сжатия : С потерями
Размер потока : 495 Мбайт (4%)
Заголовок : AC3 / 5.1 ch / 640 kbps / Русский дубляж BD RUS
Язык : Russian
Default : Да
Forced : Нет
Аудио #2
Идентификатор : 3
Формат : AC-3
Формат/Информация : Audio Coding 3
Расширение режима : CM (complete main)
Параметр Endianness формата : Big
Идентификатор кодека : A_AC3
Продолжительность : 1 ч. 48 м.
Вид битрейта : Постоянный
Битрейт : 640 Кбит/сек
Каналы : 6 каналов
Расположение каналов : Front: L C R, Side: L R, LFE
Частота : 48,0 КГц
Битовая глубина : 16 бит
Метод сжатия : С потерями
Размер потока : 495 Мбайт (4%)
Заголовок : AC3 / 5.1 ch / 640 kbps / Французский original BD RUS
Язык : French
Default : Нет
Forced : Нет
Текст #1
Идентификатор : 4
Формат : UTF-8
Идентификатор кодека : S_TEXT/UTF8
Идентификатор кодека/Информация : UTF-8 Plain Text
Заголовок : Full
Язык : Russian
Default : Нет
Forced : Нет
Текст #2
Идентификатор : 5
Формат : UTF-8
Идентификатор кодека : S_TEXT/UTF8
Идентификатор кодека/Информация : UTF-8 Plain Text
Заголовок : Full
Язык : English
Default : Нет
Forced : Нет
Меню
00:00:00.000 : :Chapter 01
00:04:16.005 : :Chapter 02
00:11:46.455 : :Chapter 03
00:17:03.522 : :Chapter 04
00:24:01.940 : :Chapter 05
00:33:31.009 : :Chapter 06
00:41:18.476 : :Chapter 07
00:46:37.836 : :Chapter 08
00:53:35.253 : :Chapter 09
00:58:31.591 : :Chapter 10
01:05:40.269 : :Chapter 11
01:10:28.724 : :Chapter 12
01:16:28.083 : :Chapter 13
01:24:30.482 : :Chapter 14
01:34:45.096 : :Chapter 15
01:42:03.826 : :Chapter 16
01:48:09.107 : :Chapter 17
-Скриншоты:




Время раздачи: с 10:00 до 24:00 ежедневно

[Цитировать]



Показать сообщения:    

Текущее время: 08-Дек 10:57

Часовой пояс: UTC + 3


Вы не можете начинать темы
Вы не можете отвечать на сообщения
Вы не можете редактировать свои сообщения
Вы не можете удалять свои сообщения
Вы не можете голосовать в опросах
Вы не можете прикреплять файлы к сообщениям
Вы не можете скачивать файлы

!ВНИМАНИЕ!
Сайт не предоставляет электронные версии произведений, а занимается лишь коллекционированием и каталогизацией ссылок, присылаемых и публикуемых на форуме нашими читателями. Если вы являетесь правообладателем какого-либо представленного материала и не желаете, чтобы ссылка на него находилась в нашем каталоге, свяжитесь с нами, и мы незамедлительно удалим ее. Файлы для обмена на трекере предоставлены пользователями сайта, и администрация не несет ответственности за их содержание. Просьба не заливать файлы, защищенные авторскими правами, а также файлы нелегального содержания!