[ Сегодня идет свободное скачивание без начисления Download ]


Статистика раздачи
Скачал: [ 1 ]
 
   
 
Top  
 
 
Ненасытная / The Insatiable Название: Ненасытная
Оригинальное название: The Insatiable
Год выхода: 2006
Страна: США
Студия: Animation House, Hippo Films, Numenorean Films
Продолжительность: 01:42:44
Жанр: ужасы, триллер, мелодрама, комедия, ...
Режиссер: Чак Конзелман, Кэри Соломон
В ролях: Шон Патрик Флэнери, Майкл Бин, Шарлотта Айянна, Джон Уэртас, Джош Хопкинс, Бойд Кестнер, Брэд Роу, Аманда Уэр, Джимми Гонзалес, ...
Перевод: Профессиональный (многоголосный, закадровый) ?
О фильме: Застенчивый продавец становится свидетелем жестокого убийства, совершенного женщиной вампиром. Никто не верит главному герою и тогда он решил сам разыскать ее… Сможет ли он убить красавицу или попадется в плен ее чарам?…

Кодек: x264
Качество: BDRip 1080p
Видео: 1920x1080, 10000 kbps, 23,976 fps
Аудио #1: AC-3, 2 ch, 192 kbps (Rus) - MVO
Аудио #2: AC-3, 2 ch, 192 kbps (Eng)
Субтитры: Английские

Дополнительная информация

За исходник спасибо - бтр-80

MediaInfo

x264 [info]: frame I:930 Avg QP:15.22 size:165463
x264 [info]: frame P:29878 Avg QP:17.84 size: 92386
x264 [info]: frame B:116936 Avg QP:19.76 size: 40943
x264 [info]: consecutive B-frames: 2.1% 2.6% 6.3% 5.0% 3.5% 79.5% 0.7% 0.1% 0.1% 0.0% 0.0% 0.1% 0.0%
Общее
Уникальный идентификатор : 239663567097526440387859809221868254613 (0xB44D8627D32791E597866599B13BF595)
Полное имя : Ненасытная (The Insatiable) 2006 BDRip 1080p.mkv
Формат : Matroska
Версия формата : Version 2
Размер файла : 7,45 Гбайт
Продолжительность : 1 ч. 42 м.
Общий поток : 10,4 Мбит/сек
Дата кодирования : UTC 2016-10-04 16:12:35
Программа кодирования : mkvmerge v4.0.0 ('The Stars were mine') сборка от Jun 6 2010 16:18:42
Библиотека кодирования : libebml v1.0.0 + libmatroska v1.0.0
Видео
Идентификатор : 1
Формат : AVC
Формат/Информация : Advanced Video Codec
Профиль формата : High@L4.1
Параметр CABAC формата : Да
Параметр ReFrames формата : 4 кадра
Идентификатор кодека : V_MPEG4/ISO/AVC
Продолжительность : 1 ч. 42 м.
Битрейт : 10000 Кбит/сек
Ширина : 1920 пикселей
Высота : 1080 пикселей
Соотношение сторон : 16:9
Режим частоты кадров : Постоянный
Частота кадров : 23,976 (24000/1001) кадра/сек
Цветовое пространство : YUV
Субдискретизация насыщенности : 4:2:0
Битовая глубина : 8 бит
Тип развёртки : Прогрессивная
Бит/(Пиксели*Кадры) : 0.201
Размер потока : 7,03 Гбайт (94%)
Библиотека кодирования : x264 core 146 r2538 121396c
Настройки программы : cabac=1 / ref=4 / deblock=1:-3:-3 / analyse=0x3:0x133 / me=umh / subme=11 / psy=1 / psy_rd=1.00:0.00 / mixed_ref=1 / me_range=32 / chroma_me=1 / trellis=2 / 8x8dct=1 / cqm=0 / deadzone=21,11 / fast_pskip=0 / chroma_qp_offset=-2 / threads=12 / lookahead_threads=2 / sliced_threads=0 / nr=0 / decimate=0 / interlaced=0 / bluray_compat=0 / constrained_intra=0 / bframes=12 / b_pyramid=2 / b_adapt=2 / b_bias=0 / direct=3 / weightb=1 / open_gop=0 / weightp=2 / keyint=240 / keyint_min=23 / scenecut=40 / intra_refresh=0 / rc=2pass / mbtree=0 / bitrate=10000 / ratetol=1.0 / qcomp=0.60 / qpmin=0 / qpmax=69 / qpstep=4 / cplxblur=20.0 / qblur=0.5 / ip_ratio=1.40 / pb_ratio=1.30 / aq=1:0.80
Язык : English
Default : Нет
Forced : Нет
Аудио #1
Идентификатор : 2
Формат : AC-3
Формат/Информация : Audio Coding 3
Расширение режима : CM (complete main)
Параметр Endianness формата : Big
Идентификатор кодека : A_AC3
Продолжительность : 1 ч. 42 м.
Вид битрейта : Постоянный
Битрейт : 192 Кбит/сек
Каналы : 2 канала
Расположение каналов : Front: L R
Частота : 48,0 КГц
Частота кадров : 31,250 кадров/сек (1536 spf)
Метод сжатия : С потерями
Размер потока : 141 Мбайт (2%)
Заголовок : MVO
Язык : Russian
Default : Нет
Forced : Нет
Аудио #2
Идентификатор : 3
Формат : AC-3
Формат/Информация : Audio Coding 3
Расширение режима : CM (complete main)
Параметр Endianness формата : Big
Идентификатор кодека : A_AC3
Продолжительность : 1 ч. 42 м.
Вид битрейта : Постоянный
Битрейт : 192 Кбит/сек
Каналы : 2 канала
Расположение каналов : Front: L R
Частота : 48,0 КГц
Частота кадров : 31,250 кадров/сек (1536 spf)
Метод сжатия : С потерями
Размер потока : 141 Мбайт (2%)
Язык : English
Default : Нет
Forced : Нет
Текст
Идентификатор : 4
Формат : UTF-8
Идентификатор кодека : S_TEXT/UTF8
Идентификатор кодека/Информация : UTF-8 Plain Text
Язык : English
Default : Нет
Forced : Нет

Скриншоты


[Цитировать]



Показать сообщения:    

Текущее время: 02-Дек 22:53

Часовой пояс: UTC + 3


Вы не можете начинать темы
Вы не можете отвечать на сообщения
Вы не можете редактировать свои сообщения
Вы не можете удалять свои сообщения
Вы не можете голосовать в опросах
Вы не можете прикреплять файлы к сообщениям
Вы не можете скачивать файлы

!ВНИМАНИЕ!
Сайт не предоставляет электронные версии произведений, а занимается лишь коллекционированием и каталогизацией ссылок, присылаемых и публикуемых на форуме нашими читателями. Если вы являетесь правообладателем какого-либо представленного материала и не желаете, чтобы ссылка на него находилась в нашем каталоге, свяжитесь с нами, и мы незамедлительно удалим ее. Файлы для обмена на трекере предоставлены пользователями сайта, и администрация не несет ответственности за их содержание. Просьба не заливать файлы, защищенные авторскими правами, а также файлы нелегального содержания!