[ Сегодня идет свободное скачивание без начисления Download ]


Статистика раздачи
Скачал: [ 2 ]
 
   
 
Top  
 
 
Дурная биология / Bad Biology Название: Дурная биология
Оригинальное название: Bad Biology
Год выхода: 2008
Страна: США
Студия: Bad Biology
Продолжительность: 01:24:15
Жанр: ужасы, ...
Режиссер: Фрэнк Хененлоттер
В ролях: Чарли Даниэльсон (Jennifer), Энтони Снид (Batz), Марк Уилсон (Pool Player), Стафф Сержант Джон А. Торберн (Junkyard Owner), Remedy (Location Manager), Tom Kohut (Jennifer's Assistant), Джеймс Шелл (Junkyard Stud), Вивиан Санчез (Junkyard Model), Джесси Джэйн Клэнси (Young Jennifer), Р.А. Торберн (Ex-Boyfriend), Бьорн Мильц (Perfect Urban Gentleman), Laura Pelage (High-School Girl 1), ...
Перевод: Авторский (одноголосый, закадровый) Котов Вячеслав Олегович
О фильме: Парень и девушка, не подозревая друг о друге ищут удовлетворение сексуальных потребностей, проходящих за гранью биологии. Но вот, к несчастью, они встречаются, что выливается в весьма экcцентричную мерзкую и трогательную историю любви…

Кодек: x264
Качество: BDRip 1080p
Видео: 1920x1080, 10000 kbps, 23,976 fps
Аудио #1: AC-3, 2 ch, 192 kbps (Rus) - AVO Котов Вячеслав Олегович (mupoxa)
Аудио #2: AC-3, 6 ch, 640 kbps (Eng)
Субтитры: нет

Дополнительная информация

За исходник спасибо - GORENOISE

MediaInfo

x264 [info]: frame I:589 Avg QP:18.23 size:188468
x264 [info]: frame P:23697 Avg QP:20.66 size:104083
x264 [info]: frame B:96914 Avg QP:23.02 size: 38556
x264 [info]: consecutive B-frames: 1.1% 1.5% 5.0% 10.2% 9.1% 70.4% 2.4% 0.1% 0.1% 0.0% 0.0% 0.0% 0.0%
Общее
Уникальный идентификатор : 232507153784772355125476381244019708392 (0xAEEB3FBCE15900EEAD85FCC2632811E8)
Полное имя : Дурная биология (Bad Biology) 2008 BDRip 1080p.mkv
Формат : Matroska
Версия формата : Version 2
Размер файла : 6,37 Гбайт
Продолжительность : 1 ч. 24 м.
Общий поток : 10,8 Мбит/сек
Дата кодирования : UTC 2016-10-05 05:30:54
Программа кодирования : mkvmerge v4.0.0 ('The Stars were mine') сборка от Jun 6 2010 16:18:42
Библиотека кодирования : libebml v1.0.0 + libmatroska v1.0.0
Видео
Идентификатор : 1
Формат : AVC
Формат/Информация : Advanced Video Codec
Профиль формата : High@L4.1
Параметр CABAC формата : Да
Параметр ReFrames формата : 4 кадра
Идентификатор кодека : V_MPEG4/ISO/AVC
Продолжительность : 1 ч. 24 м.
Битрейт : 10000 Кбит/сек
Ширина : 1920 пикселей
Высота : 1080 пикселей
Соотношение сторон : 16:9
Режим частоты кадров : Постоянный
Частота кадров : 23,976 (24000/1001) кадра/сек
Цветовое пространство : YUV
Субдискретизация насыщенности : 4:2:0
Битовая глубина : 8 бит
Тип развёртки : Прогрессивная
Бит/(Пиксели*Кадры) : 0.201
Размер потока : 5,75 Гбайт (90%)
Библиотека кодирования : x264 core 146 r2538 121396c
Настройки программы : cabac=1 / ref=4 / deblock=1:-3:-3 / analyse=0x3:0x133 / me=umh / subme=11 / psy=1 / psy_rd=1.00:0.00 / mixed_ref=1 / me_range=32 / chroma_me=1 / trellis=2 / 8x8dct=1 / cqm=0 / deadzone=21,11 / fast_pskip=0 / chroma_qp_offset=-2 / threads=12 / lookahead_threads=2 / sliced_threads=0 / nr=0 / decimate=0 / interlaced=0 / bluray_compat=0 / constrained_intra=0 / bframes=12 / b_pyramid=2 / b_adapt=2 / b_bias=0 / direct=3 / weightb=1 / open_gop=0 / weightp=2 / keyint=240 / keyint_min=23 / scenecut=40 / intra_refresh=0 / rc=2pass / mbtree=0 / bitrate=10000 / ratetol=1.0 / qcomp=0.60 / qpmin=0 / qpmax=69 / qpstep=4 / cplxblur=20.0 / qblur=0.5 / ip_ratio=1.40 / pb_ratio=1.30 / aq=1:0.80
Язык : English
Default : Нет
Forced : Нет
Аудио #1
Идентификатор : 2
Формат : AC-3
Формат/Информация : Audio Coding 3
Расширение режима : CM (complete main)
Параметр Endianness формата : Big
Идентификатор кодека : A_AC3
Продолжительность : 1 ч. 24 м.
Вид битрейта : Постоянный
Битрейт : 192 Кбит/сек
Каналы : 2 канала
Расположение каналов : Front: L R
Частота : 48,0 КГц
Частота кадров : 31,250 кадров/сек (1536 spf)
Метод сжатия : С потерями
Размер потока : 116 Мбайт (2%)
Заголовок : AVO Котов Вячеслав Олегович (mupoxa)
Язык : Russian
Default : Нет
Forced : Нет
Аудио #2
Идентификатор : 3
Формат : AC-3
Формат/Информация : Audio Coding 3
Расширение режима : CM (complete main)
Параметр Endianness формата : Big
Идентификатор кодека : A_AC3
Продолжительность : 1 ч. 24 м.
Вид битрейта : Постоянный
Битрейт : 640 Кбит/сек
Каналы : 6 каналов
Расположение каналов : Front: L C R, Side: L R, LFE
Частота : 48,0 КГц
Частота кадров : 31,250 кадров/сек (1536 spf)
Метод сжатия : С потерями
Размер потока : 386 Мбайт (6%)
Язык : English
Default : Нет
Forced : Нет

Скриншоты


[Цитировать]



Показать сообщения:    

Текущее время: 08-Дек 23:14

Часовой пояс: UTC + 3


Вы не можете начинать темы
Вы не можете отвечать на сообщения
Вы не можете редактировать свои сообщения
Вы не можете удалять свои сообщения
Вы не можете голосовать в опросах
Вы не можете прикреплять файлы к сообщениям
Вы не можете скачивать файлы

!ВНИМАНИЕ!
Сайт не предоставляет электронные версии произведений, а занимается лишь коллекционированием и каталогизацией ссылок, присылаемых и публикуемых на форуме нашими читателями. Если вы являетесь правообладателем какого-либо представленного материала и не желаете, чтобы ссылка на него находилась в нашем каталоге, свяжитесь с нами, и мы незамедлительно удалим ее. Файлы для обмена на трекере предоставлены пользователями сайта, и администрация не несет ответственности за их содержание. Просьба не заливать файлы, защищенные авторскими правами, а также файлы нелегального содержания!