[ Сегодня идет свободное скачивание без начисления Download ]


Статистика раздачи
Нет
 
   
 
Top  
 
 
-Последний бойскаут / The Last Boy Scout (1991) BDRip«The goal is to survive.»- Русское название: Последний бойскаут
Оригинальное название: The Last Boy Scout
Год выпуска: 1991
Жанр: Боевик, Комедия
Описание фильма:
Джо был американским героем - человеком, спасшим президента, а теперь он частный детектив, проснувшийся после очередной попойки в своей старенькой машине с больной головой и семейными проблемами. Весьма кстати подворачивается непыльная работенка - охрана звезды захудалого стриптиз-клуба. Однако события выходят из-под контроля - сначала убивают его друга, а потом и стриптизершу, которую Джо должен охранять. Ее парень Джимми Дикс - футболист, списанный из-за наркотиков, не меньше Джо хочет разобраться в этом деле, тем более что прямо перед смертью она обещала ему подарок ко дню рождения - возвращение в большой спорт.
Режиссер: Tony Scott / Тони Скотт
Актеры: Брюс Уиллис / Bruce Willis, Дэймон Уэйнс / Damon Wayans, Челси Филд / Chelsea Field, Ноубл Уиллингэм / Noble Willingham, Даниэль Харрис / Danielle Harris, Тэйлор Негрон / Taylor Negron
Продолжительность: 01:45:24
Перевод: Авторский (одноголосый, закадровый) Гаврилов (ранний, поздний), Сербин, Горчаков
Оригинальный аудиопоток: английский
Субтитры: Русские (3-х видов), Английские

Дата мировой премьеры: 13 December 1991 (USA)
Дата выхода Blu-Ray релиза: 12 октября 2010, «Юниверсал Пикчерс Рус»
Качество: BDRip (CHD)
Контейнер: MKV
Стандарт разрешения: 720p
Видео кодек: MPEG-4 AVC / H.264
Аудио кодек: DTS, AC3
Видео: x264, 1280х534 (2.40:1), 4 420 Kbps at 23.976 fps
Аудио#1: DTS, 48 kHz, 3/2 (L,C,R,l,r) + LFE ch, 1536 Kbps - Гаврилов ранний
Аудио#2: AC3, 48 kHz, 3/2 (L,C,R,l,r) + LFE ch, 448 Kbps - Гаврилов поздний
Аудио#3: DTS, 48 kHz, 3/2 (L,C,R,l,r) + LFE ch, 1536 Kbps - Сербин
Аудио#4: DTS, 48 kHz, 3/2 (L,C,R,l,r) + LFE ch, 1536 Kbps - Горчаков
Аудио#5: AC3, 48 kHz, 3/2 (L,C,R,l,r) + LFE ch, 640 Kbps - Английская
Формат субтитров: softsub (SRT) / S_TEXT (UTF8), Отключаемые

Дополнительная информация

За дорожку с "голоса" первого перевода Гаврилова спасибо Panas!
Новый перевод Гаврилова взят отсюда. Спасибо е180 за перевод.
А за перевод Сербина спасибо:
Прагматик, rooti89etg, AnryV, denis_mgn_1987, Batman1988, eyrobot, Slimka, GansAn,
Savinex, NZ6220, hulahup, DREADG, Atherix, Loki1982, rebz9i, Kashima_K, Afavorskij

За дорожку с "голоса" спасибо AnryV.
Горчаков с раздачи JollyRoger RG, спасибо раздающему genkasper :aa:

Награды

Премия канала «MTV», 1992 год
Номинации (2):
Лучший экранный дуэт (Брюс Уиллис, Дэймон Уайанс)
Лучшая экшн-сцена

Media Info

Формат : Matroska
Версия формата : Version 4 / Version 2
Размер файла : 7,38 Гбайт
Продолжительность : 1 ч. 45 м.
Общий поток : 10,0 Мбит/сек
Дата кодирования : UTC 2010-02-22 21:41:31
Программа кодирования : mkvmerge v5.9.0 ('On The Loose') built on Dec 9 2012 15:37:01
Библиотека кодирования : libebml v1.3.0 + libmatroska v1.4.0
Видео
Идентификатор : 1
Формат : AVC
Формат/Информация : Advanced Video Codec
Профиль формата : [email protected]
Параметр CABAC формата : Да
Параметр ReFrames формата : 8 кадров
Режим смешивания : Header stripping
Идентификатор кодека : V_MPEG4/ISO/AVC
Продолжительность : 1 ч. 45 м.
Битрейт : 4420 Кбит/сек
Ширина : 1280 пикселей
Высота : 534 пикселя
Соотношение сторон : 2,40:1
Режим частоты кадров : Постоянный
Частота кадров : 23,976 кадра/сек
Цветовое пространство : YUV
Субдискретизация насыщенности : 4:2:0
Битовая глубина : 8 бит
Тип развёртки : Прогрессивная
Бит/(Пиксели*Кадры) : 0.270
Размер потока : 3,10 Гбайт (42%)
Заголовок : The.Last.Boy.Scout.1991.BluRay.720p.DTS.AC3.x264-CHD
Библиотека кодирования : x264 core 88 r1471 1144615
Настройки программы : cabac=1 / ref=8 / deblock=1:-3:-3 / analyse=0x3:0x113 / me=umh / subme=9 / psy=1 / psy_rd=1.05:0.10 / mixed_ref=1 / me_range=32 / chroma_me=1 / trellis=2 / 8x8dct=1 / cqm=0 / deadzone=21,11 / fast_pskip=0 / chroma_qp_offset=-2 / threads=6 / sliced_threads=0 / nr=0 / decimate=1 / mbaff=0 / constrained_intra=0 / bframes=3 / b_pyramid=2 / b_adapt=2 / b_bias=0 / direct=3 / wpredb=1 / wpredp=2 / keyint=250 / keyint_min=25 / scenecut=40 / intra_refresh=0 / rc_lookahead=60 / rc=2pass / mbtree=1 / bitrate=4420 / ratetol=1.0 / qcomp=0.60 / qpmin=10 / qpmax=51 / qpstep=4 / cplxblur=20.0 / qblur=0.5 / vbv_maxrate=50000 / vbv_bufsize=50000 / ip_ratio=1.40 / aq=1:0.60
Язык : English
Default : Да
Forced : Нет
Аудио #1
Идентификатор : 2
Формат : DTS
Формат/Информация : Digital Theater Systems
Режим : 16
Параметр Endianness формата : Big
Режим смешивания : Header stripping
Идентификатор кодека : A_DTS
Продолжительность : 1 ч. 45 м.
Вид битрейта : Постоянный
Битрейт : 1509 Кбит/сек
Каналы : 6 каналов
Расположение каналов : Front: L C R, Side: L R, LFE
Частота : 48,0 КГц
Битовая глубина : 24 бит
Метод сжатия : С потерями
Размер потока : 1,11 Гбайт (15%)
Заголовок : Gavrilov Old
Язык : Russian
Default : Да
Forced : Нет
Аудио #2
Идентификатор : 3
Формат : AC-3
Формат/Информация : Audio Coding 3
Расширение режима : CM (complete main)
Параметр Endianness формата : Big
Режим смешивания : Header stripping
Идентификатор кодека : A_AC3
Продолжительность : 1 ч. 45 м.
Вид битрейта : Постоянный
Битрейт : 448 Кбит/сек
Каналы : 6 каналов
Расположение каналов : Front: L C R, Side: L R, LFE
Частота : 48,0 КГц
Битовая глубина : 16 бит
Метод сжатия : С потерями
Размер потока : 338 Мбайт (4%)
Заголовок : Gavrilov New
Язык : Russian
Default : Нет
Forced : Нет
Аудио #3
Идентификатор : 4
Формат : DTS
Формат/Информация : Digital Theater Systems
Режим : 16
Параметр Endianness формата : Big
Режим смешивания : Header stripping
Идентификатор кодека : A_DTS
Продолжительность : 1 ч. 45 м.
Вид битрейта : Постоянный
Битрейт : 1510 Кбит/сек
Каналы : 6 каналов
Расположение каналов : Front: L C R, Side: L R, LFE
Частота : 48,0 КГц
Битовая глубина : 24 бит
Метод сжатия : С потерями
Размер потока : 1,11 Гбайт (15%)
Заголовок : Serbin
Язык : Russian
Default : Нет
Forced : Нет
Аудио #4
Идентификатор : 5
Формат : DTS
Формат/Информация : Digital Theater Systems
Режим : 16
Параметр Endianness формата : Big
Режим смешивания : Header stripping
Идентификатор кодека : A_DTS
Продолжительность : 1 ч. 45 м.
Вид битрейта : Постоянный
Битрейт : 1509 Кбит/сек
Каналы : 6 каналов
Расположение каналов : Front: L C R, Side: L R, LFE
Частота : 48,0 КГц
Битовая глубина : 24 бит
Метод сжатия : С потерями
Размер потока : 1,11 Гбайт (15%)
Заголовок : Gorchakov
Язык : Russian
Default : Нет
Forced : Нет
Аудио #5
Идентификатор : 6
Формат : AC-3
Формат/Информация : Audio Coding 3
Расширение режима : CM (complete main)
Параметр Endianness формата : Big
Режим смешивания : Header stripping
Идентификатор кодека : A_AC3
Продолжительность : 1 ч. 45 м.
Вид битрейта : Постоянный
Битрейт : 640 Кбит/сек
Каналы : 6 каналов
Расположение каналов : Front: L C R, Side: L R, LFE
Частота : 48,0 КГц
Битовая глубина : 16 бит
Метод сжатия : С потерями
Размер потока : 483 Мбайт (6%)
Заголовок : AC3 5.1 @ 640 kbps |Оригинал|
Язык : English
Default : Нет
Forced : Нет
Текст #1
Идентификатор : 7
Формат : UTF-8
Идентификатор кодека : S_TEXT/UTF8
Идентификатор кодека/Информация : UTF-8 Plain Text
Заголовок : Русские #1
Язык : Russian
Default : Да
Forced : Нет
Текст #2
Идентификатор : 8
Формат : UTF-8
Идентификатор кодека : S_TEXT/UTF8
Идентификатор кодека/Информация : UTF-8 Plain Text
Заголовок : Русские #2
Язык : Russian
Default : Нет
Forced : Нет
Текст #3
Идентификатор : 9
Формат : UTF-8
Идентификатор кодека : S_TEXT/UTF8
Идентификатор кодека/Информация : UTF-8 Plain Text
Заголовок : Русские #3
Язык : Russian
Default : Нет
Forced : Нет
Текст #4
Идентификатор : 10
Формат : UTF-8
Идентификатор кодека : S_TEXT/UTF8
Идентификатор кодека/Информация : UTF-8 Plain Text
Язык : English
Default : Нет
Forced : Нет


Время раздачи: 24 / 7 Почти всегда

[Цитировать]



Показать сообщения:    

Текущее время: 06-Дек 15:16

Часовой пояс: UTC + 3


Вы не можете начинать темы
Вы не можете отвечать на сообщения
Вы не можете редактировать свои сообщения
Вы не можете удалять свои сообщения
Вы не можете голосовать в опросах
Вы не можете прикреплять файлы к сообщениям
Вы не можете скачивать файлы

!ВНИМАНИЕ!
Сайт не предоставляет электронные версии произведений, а занимается лишь коллекционированием и каталогизацией ссылок, присылаемых и публикуемых на форуме нашими читателями. Если вы являетесь правообладателем какого-либо представленного материала и не желаете, чтобы ссылка на него находилась в нашем каталоге, свяжитесь с нами, и мы незамедлительно удалим ее. Файлы для обмена на трекере предоставлены пользователями сайта, и администрация не несет ответственности за их содержание. Просьба не заливать файлы, защищенные авторскими правами, а также файлы нелегального содержания!