[ Сегодня идет свободное скачивание без начисления Download ]


Статистика раздачи
Нет
 
   
 
Top  
 
 
-Однажды в Ирландии / The Guard (2011) BDRip- Русское название: Однажды в Ирландии
Оригинальное название: The Guard
Год выпуска: 2011
Производство: Ирландия | Irish Film Board, UK Film Council
Перевод: Авторский одноголосый закадровый [ Д. Пучков/Гоблин] + Ю.Сербин + двухголосый закадровый профессиональный [студия Elrom]
Язык субтитров: Русский (Гоблин, Full), Английский (Full, SDH, Commentary)
Вид субтитров: Вшитые отключаемые
ВНИМАНИЕ: В фильме присутствует ненормативная лексика в необходимом и достаточном количестве.-Дата мировой премьеры: 20 января 2011
Дата российской премьеры: 1 декабря 2011, «Премиум Фильм»
Дата выхода DVD релиза: 2 февраля 2012, «CP-Digital»
Дата выхода Blu-Ray релиза: 2 февраля 2012, «CP-Digital»-Режиссер: Джон Майкл МакДона-Продюсеры: Крис Кларк, Флора Фернандес-Маренго, Эд Гуене-Актеры: Брендан Глисон, Дон Чидл, Марк Стронг, Лиам Каннингэм, Фионнула Флэнаган, Дэвид Уилмот, Лоуренс Кинлан, Катарина Кэс, Доминик МакЭллигот, Гари Лайдон ...-Описание фильма:
Женщины, выпивка и веселые шутки — вот радости добродушного ирландского полицейского, сержанта Джерри Бойла. Он никогда не помышлял о геройстве, пока однажды в Дублине не появился агент ФБР, который призвал незадачливого служителя порядка помочь ему накрыть международную банду наркоторговцев. Смогут ли сработаться веселый рыжий ирландец и решительный афроамериканец? Ведь дело, за которое они взялись, окажется таким же непредсказуемым, как и они сами…-
Продолжительность: 01:35:49
Качество видео: BDRip 1080p [HDC]
Видеокодек: MPEG-4 AVC/H.264
Битрейт видео: ~ 14,6 Мбит/сек
Размер кадра: 1920 x 816 (2.353) at 23,976 fps : 0.388 Bits/Pixel
Аудиокодек: AC3 2.0/5.1 | DTS
Аудио #1: DTS 1510 Кбит/сек (6ch), 48,0 КГц, 24 бит [Русский, AVO Д.Пучков]
Аудио #2: DTS 1510 Кбит/сек (6ch), 48,0 КГц, 16 бит [Русский, AVO Ю.Сербин]
Аудио #3: AC3 192 Кбит/сек (2ch), 48,0 КГц, 16 бит [Русский, DVO Cтудия Elrom]
Аудио #4: DTS 1510 Кбит/сек (6ch), 48,0 КГц, 24 бит [Английский]
Аудио #5: 192 Кбит/сек (2ch), 48,0 КГц, 16 бит [Английский-комментарии]
Дополнительно: Сохранены оригинальные чаптеры как на Blu-ray
Релиз:

Награды

MediaInfo:

Полное имя                               : F:\Фильмы\HD-BD\Однажды в Ирландии  The Guard (2011) BDRip 1080p  Гоблин\Odnajdi.V.Irlandii.2011.BDRip.1080p.Goblin.Serbin.NNM-CLUB.mkv
Формат                                   : Matroska
Версия формата                           : Version 2
Размер файла                             : 13,0 Гбайт
Продолжительность                        : 1 ч. 36 м.
Общий поток                              : 19,4 Мбит/сек
Название фильма                          : -=NNM-CLUB.RU=-
Дата кодирования                         : UTC 2012-12-13 01:11:11
Программа кодирования                    : mkvmerge v5.0.1 ('Es ist Sommer') built on Oct 24 2011 19:45:06
Библиотека кодирования                   : libebml v1.2.2 + libmatroska v1.3.0
Видео
Идентификатор                            : 1
Формат                                   : AVC
Формат/Информация                        : Advanced Video Codec
Профиль формата                          : [url=mailto:High@L4.1]High@L4.1[/url]
Параметр CABAC формата                   : Да
Параметр ReFrames формата                : 5 кадров
Режим смешивания                         : Header stripping
Идентификатор кодека                     : V_MPEG4/ISO/AVC
Битрейт                                  : 14,6 Мбит/сек
Ширина                                   : 1920 пикселей
Высота                                   : 816 пикселей
Соотношение сторон                       : 2,35:1
Режим частоты кадров                     : Переменный
Частота кадров в оригинале               : 23,976 кадра/сек
Цветовое пространство                    : YUV
Субдискретизация насыщенности            : 4:2:0
Битовая глубина                          : 8 бит
Тип развёртки                            : Прогрессивная
Бит/(Пиксели*Кадры)                      : 0.388
Заголовок                                : Odnajdi.V.Irlandii.2011.BDRip.1080p.Goblin.Serbin
Библиотека кодирования                   : x264 core 116 r2074 2641b9e
Настройки программы                      : cabac=1 / ref=5 / deblock=1:-3:-2 / analyse=0x3:0x133 / me=umh / subme=10 / psy=1 / psy_rd=1.00:0.00 / mixed_ref=1 / me_range=36 / chroma_me=1 / trellis=2 / 8x8dct=1 / cqm=0 / deadzone=21,11 / fast_pskip=0 / chroma_qp_offset=-2 / threads=8 / sliced_threads=0 / nr=0 / decimate=0 / interlaced=0 / bluray_compat=0 / constrained_intra=0 / bframes=8 / b_pyramid=2 / b_adapt=2 / b_bias=0 / direct=3 / weightb=1 / open_gop=0 / weightp=2 / keyint=360 / keyint_min=2 / scenecut=40 / intra_refresh=0 / rc=2pass / mbtree=0 / bitrate=14585 / ratetol=1.0 / qcomp=0.70 / qpmin=0 / qpmax=69 / qpstep=4 / cplxblur=20.0 / qblur=0.5 / ip_ratio=1.40 / pb_ratio=1.30 / aq=2:1.00
Default                                  : Нет
Forced                                   : Нет
Аудио #1
Идентификатор                            : 2
Формат                                   : DTS
Формат/Информация                        : Digital Theater Systems
Режим смешивания                         : Header stripping
Идентификатор кодека                     : A_DTS
Продолжительность                        : 1 ч. 36 м.
Вид битрейта                             : Постоянный
Битрейт                                  : 1510 Кбит/сек
Каналы                                   : 6 каналов
Расположение каналов                     : Front: L C R, Side: L R, LFE
Частота                                  : 48,0 КГц
Битовая глубина                          : 24 бит
Метод сжатия                             : С потерями
Размер потока                            : 1,01 Гбайт (8%)
Заголовок                                : DTS.1510.Kbps.Russian.AVO.Goblin
Язык                                     : Russian
Default                                  : Да
Forced                                   : Нет
Аудио #2
Идентификатор                            : 3
Формат                                   : DTS
Формат/Информация                        : Digital Theater Systems
Режим смешивания                         : Header stripping
Идентификатор кодека                     : A_DTS
Продолжительность                        : 1 ч. 36 м.
Вид битрейта                             : Постоянный
Битрейт                                  : 1510 Кбит/сек
Каналы                                   : 6 каналов
Расположение каналов                     : Front: L C R, Side: L R, LFE
Частота                                  : 48,0 КГц
Битовая глубина                          : 16 бит
Метод сжатия                             : С потерями
Размер потока                            : 1,01 Гбайт (8%)
Заголовок                                : DTS.1510.Kbps.Russian.AVO.Serbin
Язык                                     : Russian
Default                                  : Нет
Forced                                   : Нет
Аудио #3
Идентификатор                            : 4
Формат                                   : AC-3
Формат/Информация                        : Audio Coding 3
Расширение режима                        : CM (complete main)
Параметр Endianness формата              : Big
Режим смешивания                         : Header stripping
Идентификатор кодека                     : A_AC3
Продолжительность                        : 1 ч. 36 м.
Вид битрейта                             : Постоянный
Битрейт                                  : 192 Кбит/сек
Каналы                                   : 2 канала
Расположение каналов                     : Front: L R
Частота                                  : 48,0 КГц
Битовая глубина                          : 16 бит
Метод сжатия                             : С потерями
Размер потока                            : 132 Мбайт (1%)
Заголовок                                : AC3.192.Kbps (2ch) Russian.Cтудия Elrom
Язык                                     : Russian
Default                                  : Нет
Forced                                   : Нет
Аудио #4
Идентификатор                            : 5
Формат                                   : DTS
Формат/Информация                        : Digital Theater Systems
Режим смешивания                         : Header stripping
Идентификатор кодека                     : A_DTS
Продолжительность                        : 1 ч. 36 м.
Вид битрейта                             : Постоянный
Битрейт                                  : 1510 Кбит/сек
Каналы                                   : 6 каналов
Расположение каналов                     : Front: L C R, Side: L R, LFE
Частота                                  : 48,0 КГц
Битовая глубина                          : 24 бит
Метод сжатия                             : С потерями
Задержка видео                           : 11 мс.
Размер потока                            : 1,01 Гбайт (8%)
Заголовок                                : DTS.1510.Kbps.English
Язык                                     : English
Default                                  : Нет
Forced                                   : Нет
Аудио #5
Идентификатор                            : 6
Формат                                   : AC-3
Формат/Информация                        : Audio Coding 3
Расширение режима                        : CM (complete main)
Параметр Endianness формата              : Big
Режим смешивания                         : Header stripping
Идентификатор кодека                     : A_AC3
Продолжительность                        : 1 ч. 36 м.
Вид битрейта                             : Постоянный
Битрейт                                  : 192 Кбит/сек
Каналы                                   : 2 канала
Расположение каналов                     : Front: L R
Частота                                  : 48,0 КГц
Битовая глубина                          : 16 бит
Метод сжатия                             : С потерями
Размер потока                            : 132 Мбайт (1%)
Заголовок                                : Commentary with Director John Michael Mcdonagh and Actors Don Cheadle & Brendan Gleeson
Язык                                     : English
Default                                  : Нет
Forced                                   : Нет
Текст #1
Идентификатор                            : 7
Формат                                   : UTF-8
Идентификатор кодека                     : S_TEXT/UTF8
Идентификатор кодека/Информация          : UTF-8 Plain Text
Заголовок                                : Russian (Гоблин)
Язык                                     : Russian
Default                                  : Да
Forced                                   : Да
Текст #2
Идентификатор                            : 8
Формат                                   : UTF-8
Идентификатор кодека                     : S_TEXT/UTF8
Идентификатор кодека/Информация          : UTF-8 Plain Text
Заголовок                                : Russian (Full)
Язык                                     : Russian
Default                                  : Нет
Forced                                   : Нет
Текст #3
Идентификатор                            : 9
Формат                                   : UTF-8
Идентификатор кодека                     : S_TEXT/UTF8
Идентификатор кодека/Информация          : UTF-8 Plain Text
Заголовок                                : English (Full)
Язык                                     : English
Default                                  : Нет
Forced                                   : Нет
Текст #4
Идентификатор                            : 10
Формат                                   : UTF-8
Идентификатор кодека                     : S_TEXT/UTF8
Идентификатор кодека/Информация          : UTF-8 Plain Text
Заголовок                                : English (SDH)
Язык                                     : English
Default                                  : Нет
Forced                                   : Нет
Текст #5
Идентификатор                            : 11
Формат                                   : UTF-8
Идентификатор кодека                     : S_TEXT/UTF8
Идентификатор кодека/Информация          : UTF-8 Plain Text
Заголовок                                : English (Commentary with Director John Michael Mcdonagh and Actors Don Cheadle & Brendan Gleeson)
Язык                                     : English
Default                                  : Нет
Forced                                   : Нет
Меню
00:00:00.000                             : en:Chapter.01
00:06:52.036                             : en:Chapter.02
00:12:38.299                             : en:Chapter.03
00:16:27.194                             : en:Chapter.04
00:26:50.650                             : en:Chapter.05
00:29:43.406                             : en:Chapter.06
00:34:01.914                             : en:Chapter.07
00:37:51.560                             : en:Chapter.08
00:46:52.392                             : en:Chapter.09
00:50:18.348                             : en:Chapter.10
00:54:05.825                             : en:Chapter.11
01:03:24.342                             : en:Chapter.12
01:09:28.205                             : en:Chapter.13
01:15:43.789                             : en:Chapter.14
01:22:26.274                             : en:Chapter.15
01:27:44.425                             : en:Chapter.16

X264 iNFO

x264 [info]: frame I:970 Avg QP:14.70 size:259874
x264 [info]: frame P:25976 Avg QP:16.67 size:113787
x264 [info]: frame B:110910 Avg QP:19.10 size: 65603
x264 [info]: consecutive B-frames: 1.3% 0.8% 5.0% 7.8% 14.8% 58.3% 6.1% 2.5% 3.4%
Скриншоты:




Время раздачи: 24/7 (до 10 скачавших)

[Цитировать]



Показать сообщения:    

Текущее время: 21-Фев 17:12

Часовой пояс: UTC + 3


Вы не можете начинать темы
Вы не можете отвечать на сообщения
Вы не можете редактировать свои сообщения
Вы не можете удалять свои сообщения
Вы не можете голосовать в опросах
Вы не можете прикреплять файлы к сообщениям
Вы не можете скачивать файлы

!ВНИМАНИЕ!
Сайт не предоставляет электронные версии произведений, а занимается лишь коллекционированием и каталогизацией ссылок, присылаемых и публикуемых на форуме нашими читателями. Если вы являетесь правообладателем какого-либо представленного материала и не желаете, чтобы ссылка на него находилась в нашем каталоге, свяжитесь с нами, и мы незамедлительно удалим ее. Файлы для обмена на трекере предоставлены пользователями сайта, и администрация не несет ответственности за их содержание. Просьба не заливать файлы, защищенные авторскими правами, а также файлы нелегального содержания!