[ Сегодня идет свободное скачивание без начисления Download ]


Статистика раздачи
Нет
 
   
 
Top  
 
 
Путь к славе / Sing (2016) WEBRip - Производство: США, Япония / Universal Pictures
Жанр: Мультфильм, Мюзикл, Драма, Комедия, Семейный
Режиссер: Гарт Дженнингс
Продюсер: Джанет Хили, Кристофер Меледандри, Игорь Хайт
Актеры: Скарлетт Йоханссон, Мэттью МакКонахи, Тэрон Эджертон, Риз Уизерспун, Ник Офферман, Сет МакФарлейн, Питер Серафинович, Джон Си Райли, Лесли Джонс, Ник Кролл
Описание:
Каждое животное мечтает стать звездой. Слониха, баран, бык, и даже хрюшка, буквально все рвутся к славе. Кто знает, кому улыбнется капризная фортуна и чей портрет украсит завтра обложки глянцевых журналов. Все как у людей…

Дата мировой премьеры: 11 сентября 2016
Дата российской премьеры: 2 марта 2017
Продолжительность: 00:02:57
Качество видео: WEBRip
Перевод: Дублированный
Видео: AVC/H.264, 1920x1080 (16:9), ~2115 Kbps
Аудио: AAC, 2 ch, 126 Kbps, VBR

Mediainfo:

Формат                                   : MPEG-4
Профиль формата                          : Base Media
Идентификатор кодека                     : isom (isom/iso2/avc1/mp41)
Размер файла                             : 47,5 Мбайт
Продолжительность                        : 2 м. 57 с.
Режим общего битрейта                    : Переменный
Общий поток                              : 2243 Кбит/сек
Дата кодирования                         : UTC 2016-05-28 09:39:32
Дата пометки                             : UTC 2016-05-28 09:39:32
Видео
Идентификатор                            : 1
Формат                                   : AVC
Формат/Информация                        : Advanced Video Codec
Профиль формата                          : High@L4
Параметр CABAC формата                   : Да
Параметр ReFrames формата                : 3 кадра
Идентификатор кодека                     : avc1
Идентификатор кодека/Информация          : Advanced Video Coding
Продолжительность                        : 2 м. 57 с.
Битрейт                                  : 2115 Кбит/сек
Ширина                                   : 1920 пикселей
Высота                                   : 1080 пикселей
Соотношение сторон                       : 16:9
Режим частоты кадров                     : Постоянный
Частота кадров                           : 25,000 кадров/сек
Цветовое пространство                    : YUV
Субдискретизация насыщенности            : 4:2:0
Битовая глубина                          : 8 бит
Тип развёртки                            : Прогрессивная
Бит/(Пиксели*Кадры)                      : 0.041
Размер потока                            : 44,8 Мбайт (94%)
Дата кодирования                         : UTC 2016-05-28 09:39:32
Дата пометки                             : UTC 2016-05-28 09:39:32
Цветовой диапазон                        : Limited
Основные цвета                           : BT.709
Характеристики трансфера                 : BT.709
Коэффициенты матрицы                     : BT.709
Аудио
Идентификатор                            : 2
Формат                                   : AAC
Формат/Информация                        : Advanced Audio Codec
Профиль формата                          : LC
Идентификатор кодека                     : 40
Продолжительность                        : 2 м. 57 с.
Вид битрейта                             : Переменный
Битрейт                                  : 126 Кбит/сек
Каналы                                   : 2 канала
Расположение каналов                     : Front: L R
Частота                                  : 44,1 КГц
Частота кадров                           : 43,066 кадра/сек (1024 spf)
Метод сжатия                             : С потерями
Размер потока                            : 2,66 Мбайт (6%)
Default                                  : Да
Alternate group                          : 1
Скриншоты:

[Цитировать]



Показать сообщения:    

Текущее время: 10-Дек 23:25

Часовой пояс: UTC + 3


Вы не можете начинать темы
Вы не можете отвечать на сообщения
Вы не можете редактировать свои сообщения
Вы не можете удалять свои сообщения
Вы не можете голосовать в опросах
Вы не можете прикреплять файлы к сообщениям
Вы не можете скачивать файлы

!ВНИМАНИЕ!
Сайт не предоставляет электронные версии произведений, а занимается лишь коллекционированием и каталогизацией ссылок, присылаемых и публикуемых на форуме нашими читателями. Если вы являетесь правообладателем какого-либо представленного материала и не желаете, чтобы ссылка на него находилась в нашем каталоге, свяжитесь с нами, и мы незамедлительно удалим ее. Файлы для обмена на трекере предоставлены пользователями сайта, и администрация не несет ответственности за их содержание. Просьба не заливать файлы, защищенные авторскими правами, а также файлы нелегального содержания!