[ Сегодня идет свободное скачивание без начисления Download ]


Статистика раздачи
Нет
 
   
 
Top  
 
 
Майор Гром (2016) WEBRip - Производство: Россия / Bubble Studios
Жанр: Приключения, Фантастика, Драма, Боевик
Режиссер: Владимир Беседин
Актеры: Александр Горбатов, Иван Фоминов, Антон Кузнецов, Данила Якушев, Ойсель Море Деспайгне
Описание:
Игорь Гром — опытный следователь из Санкт-Петербурга, известный своим пробивным характером и непримиримой позицией по отношению к преступникам всех мастей. Неимоверная сила, аналитический склад ума и неподкупность — всё это делает майора Грома идеальным полицейским. Работая не покладая рук, он всегда доводит начатое до конца и никогда не пасует перед трудностями, стоящими на пути.

Дата российской премьеры: декабрь 2016
Продолжительность: 00:01:12
Качество видео: WEBRip
Видео: AVC/H.264, 1920x1080 (16:9), ~2073 Kbps
Аудио: AAC, 2 ch, 126 Kbps, VBR

Mediainfo:

Формат                                   : MPEG-4
Профиль формата                          : Base Media
Идентификатор кодека                     : isom (isom/iso2/avc1/mp41)
Размер файла                             : 19,1 Мбайт
Продолжительность                        : 1 м. 12 с.
Режим общего битрейта                    : Переменный
Общий поток                              : 2200 Кбит/сек
Дата кодирования                         : UTC 2016-10-04 11:17:21
Дата пометки                             : UTC 2016-10-04 11:17:21
Видео
Идентификатор                            : 1
Формат                                   : AVC
Формат/Информация                        : Advanced Video Codec
Профиль формата                          : [email protected]
Параметр CABAC формата                   : Да
Параметр ReFrames формата                : 3 кадра
Идентификатор кодека                     : avc1
Идентификатор кодека/Информация          : Advanced Video Coding
Продолжительность                        : 1 м. 12 с.
Битрейт                                  : 2073 Кбит/сек
Ширина                                   : 1920 пикселей
Высота                                   : 1080 пикселей
Соотношение сторон                       : 16:9
Режим частоты кадров                     : Постоянный
Частота кадров                           : 24,000 кадра/сек
Цветовое пространство                    : YUV
Субдискретизация насыщенности            : 4:2:0
Битовая глубина                          : 8 бит
Тип развёртки                            : Прогрессивная
Бит/(Пиксели*Кадры)                      : 0.042
Размер потока                            : 18,0 Мбайт (94%)
Дата кодирования                         : UTC 2016-10-04 11:17:21
Дата пометки                             : UTC 2016-10-04 11:17:21
Цветовой диапазон                        : Limited
Основные цвета                           : BT.709
Характеристики трансфера                 : BT.709
Коэффициенты матрицы                     : BT.709
Аудио
Идентификатор                            : 2
Формат                                   : AAC
Формат/Информация                        : Advanced Audio Codec
Профиль формата                          : LC
Идентификатор кодека                     : 40
Продолжительность                        : 1 м. 12 с.
Вид битрейта                             : Переменный
Битрейт                                  : 126 Кбит/сек
Каналы                                   : 2 канала
Расположение каналов                     : Front: L R
Частота                                  : 44,1 КГц
Частота кадров                           : 43,066 кадра/сек (1024 spf)
Метод сжатия                             : С потерями
Размер потока                            : 1,09 Мбайт (6%)
Default                                  : Да
Alternate group                          : 1
Скриншоты:

[Цитировать]



Показать сообщения:    

Текущее время: 05-Дек 03:31

Часовой пояс: UTC + 3


Вы не можете начинать темы
Вы не можете отвечать на сообщения
Вы не можете редактировать свои сообщения
Вы не можете удалять свои сообщения
Вы не можете голосовать в опросах
Вы не можете прикреплять файлы к сообщениям
Вы не можете скачивать файлы

!ВНИМАНИЕ!
Сайт не предоставляет электронные версии произведений, а занимается лишь коллекционированием и каталогизацией ссылок, присылаемых и публикуемых на форуме нашими читателями. Если вы являетесь правообладателем какого-либо представленного материала и не желаете, чтобы ссылка на него находилась в нашем каталоге, свяжитесь с нами, и мы незамедлительно удалим ее. Файлы для обмена на трекере предоставлены пользователями сайта, и администрация не несет ответственности за их содержание. Просьба не заливать файлы, защищенные авторскими правами, а также файлы нелегального содержания!