[ Сегодня идет свободное скачивание без начисления Download ]


Статистика раздачи
Скачал: [ 2 ]
 
   
 
Top  
 
 
Любовь в раю / Love in Paradise (2016) HDTVRip - Производство: США
Жанр: Драма, Комедия
Режиссер: Шон МакНамара
Продюсер: Нил Х. Доброфски, Типпи Доброфски, Жослин Хэмилтон
Актеры: Люк Перри, Эммануэль Вожье, Чад Виллетт, Джошуа Дж. Баллард, Том Батлер, Вирджил Дейвис, Фрэнсис Флэнаган, Мэтт Фрюэр, Она Грауэр, Дэвид С. Джонс
Описание:
Эвери Форд — известный актер, сделавший имя и карьеру, играя крутого ковбоя в популярном сериале. Но сейчас дни его славы остались в прошлом. Сьемки сериала приостановлены, а он зарабатывает на жизнь, снимаясь в рекламе. Неожиданно ему поступает заманчивое предложение «поработать лицом» — изображать ковбоя в рамках рекламной кампании конно-спортивного комплекса. Правда для этого ему придется отправиться в глухую провинцию, сменить нью-йоркский пентхаус на хижину в лесу, а дизайнерскую одежду на джинсы и сапоги. Короче, придется притворяться настоящим ковбоем…

Дата мировой премьеры: 2 января 2016
Продолжительность: 01:23:54
Качество видео: HDTVRip СЭМПЛ
Перевод: Многоголосый закадровый, любительский (СПД)
Реклама: присутствуют аудио и видео вставки рекламы.
Видео: Xvid, 720х400, 1937 Кбит/сек
Аудио: AC3, 2 ch, 384 Кбит/сек

Информация по видеофайлу

Love.In.Paradise.2016.P.HDTVRip.14OOMB.avi
Формат : AVI
Формат/Информация : Audio Video Interleave
Размер файла : 1,37 Гбайт
Продолжительность : 1 ч. 23 м.
Общий поток : 2333 Кбит/сек
Программа кодирования : VirtualDubMod 1.5.10.2 (build 2540/release)
Библиотека кодирования : VirtualDubMod build 2540/release
Видео
Идентификатор : 0
Формат : MPEG-4 Visual
Профиль формата : Advanced Simple@L5
Параметр BVOP формата : 2
Параметр QPel формата : Нет
Параметр GMC формата : Без точки перехода
Параметр матрицы формата : Выборочная
Идентификатор кодека : XVID
Идентификатор кодека/Подсказка : XviD
Продолжительность : 1 ч. 23 м.
Битрейт : 1937 Кбит/сек
Ширина : 720 пикселей
Высота : 400 пикселей
Соотношение сторон : 16:9
Частота кадров : 29,970 (30000/1001) кадров/сек
Цветовое пространство : YUV
Субдискретизация насыщенности : 4:2:0
Битовая глубина : 8 бит
Тип развёртки : Прогрессивная
Метод сжатия : С потерями
Бит/(Пиксели*Кадры) : 0.224
Размер потока : 1,14 Гбайт (83%)
Библиотека кодирования : XviD 1.2.1 (UTC 2008-12-04)
Аудио
Идентификатор : 1
Формат : AC-3
Формат/Информация : Audio Coding 3
Расширение режима : CM (complete main)
Параметр Endianness формата : Big
Идентификатор кодека : 2000
Продолжительность : 1 ч. 23 м.
Вид битрейта : Постоянный
Битрейт : 384 Кбит/сек
Каналы : 2 канала
Расположение каналов : Front: L R
Частота : 48,0 КГц
Частота кадров : 31,250 кадров/сек (1536 spf)
Метод сжатия : С потерями
Размер потока : 230 Мбайт (16%)
Выравнивание : Разделение по промежуткам
Продолжительность промежутка : 33 мс. (1,00 видеокадр)
Время предзагрузки промежутка : 500 мс.
Скриншоты:

[Цитировать]



Показать сообщения:    

Текущее время: 09-Дек 20:19

Часовой пояс: UTC + 3


Вы не можете начинать темы
Вы не можете отвечать на сообщения
Вы не можете редактировать свои сообщения
Вы не можете удалять свои сообщения
Вы не можете голосовать в опросах
Вы не можете прикреплять файлы к сообщениям
Вы не можете скачивать файлы

!ВНИМАНИЕ!
Сайт не предоставляет электронные версии произведений, а занимается лишь коллекционированием и каталогизацией ссылок, присылаемых и публикуемых на форуме нашими читателями. Если вы являетесь правообладателем какого-либо представленного материала и не желаете, чтобы ссылка на него находилась в нашем каталоге, свяжитесь с нами, и мы незамедлительно удалим ее. Файлы для обмена на трекере предоставлены пользователями сайта, и администрация не несет ответственности за их содержание. Просьба не заливать файлы, защищенные авторскими правами, а также файлы нелегального содержания!