[ Сегодня идет свободное скачивание без начисления Download ]


Статистика раздачи
Скачал: [ 2 ]
 
   
 
Top  
 
 
Медовый месяц с призраками / Haunted Honeymoon Информация о фильме:
Название: Медовый месяц с призраками
Оригинальное название: Haunted Honeymoon
Год выпуска: 1986
Страна: США
Жанр: Комедия, ужасы
Продолжительность: 01:23:24
Перевод: Профессиональный (двухголосый закадровый) ОРТ
Режиссер: Джин Уайлдер
В ролях: Джин Уайлдер, Джильда Раднер, Джонатан Прайс, Дом ДеЛуис, Джастин Уорд, Дон Морган, Клер Дениз, Энди Росс, Аластер Хейли, Сэлли Осборн, Джон Блумфилд, Колин Брюс, Мак МакДональд, Френсис Дрэйк, Уильям Хуткинс, Мэтт Зиммерман, Андреа Браун, Эдвард Уайли, Дэвид Хили, Билл Бэйли, Кристофер Мюнке
Описание: Ведущий актер радиотеатра Лари Эббот страдает одним недостатком — он ужасно боится грома и молнии, и это мешает ему нормально выступать в спектаклях ужаса. Один его дядя решил вылечить племянника по странной методике: избавить Лари от страха, как следует напугав его. Поскольку Лари собирался жениться, то его с невестой Вики Пирл пригласили на церемонию бракосочетания в родовой замок Эбботов. На свадьбу съехались все представители семейства со своими женами. С самого начала пребывания в замке Лари погружается в атмосферу таинственности и страха, которую умело создал дядя с помощью невесты Лари. Экстравагантные родственники, среди которых находится знаменитый фокусник, по мере сил помогают дурачить Лари. Однако в этой весёлой семейке оказывается и настоящий преступник....

Файл
Качество: BDRip 1080p
Формат: MKV
Видео кодек: H264
Аудио кодек: AC3
Видео: MPEG4 Video (H264), 1920x1040, 23.976fps, 14.0 Mbps
Аудио #1: Русский, Dolby AC3, 48000 Hz, 2ch, 192 kbps - Двухголосый, ОРТ
Аудио #2: Английский, Dolby AC3, 48000 Hz, 2ch, 192 kbps
Сэмпл

MediaInfo:

General
Unique ID : 248238144872374193572060547061666762068 (0xBAC0ED7ACA5DB61EA51A1801A6E74D54)
Complete name : F:DVDRip1986 Медовый месяц с призраками1986 Медовый месяц с призраками.mkv
Format : Matroska
Format version : Version 4 / Version 2
File size : 8.37 GiB
Duration : 1 h 23 min
Overall bit rate : 14.4 Mb/s
Movie name : 1986 Медовый месяц с призраками / Rip by likko
Encoded date : UTC 2016-10-06 16:07:07
Writing application : mkvmerge v8.3.0 ('Over the Horizon') 64bit
Writing library : libebml v1.3.1 + libmatroska v1.4.2
Video
ID : 1
Format : AVC
Format/Info : Advanced Video Codec
Format profile : High@L4.1
Format settings, CABAC : Yes
Format settings, ReFrames : 4 frames
Codec ID : V_MPEG4/ISO/AVC
Duration : 1 h 23 min
Bit rate : 14.0 Mb/s
Width : 1 920 pixels
Height : 1 040 pixels
Display aspect ratio : 1.85:1
Frame rate mode : Constant
Frame rate : 23.976 (24000/1001) FPS
Color space : YUV
Chroma subsampling : 4:2:0
Bit depth : 8 bits
Scan type : Progressive
Bits/(Pixel*Frame) : 0.292
Stream size : 8.15 GiB (97%)
Title : 1986 Медовый месяц с призраками / Вариант 2ch
Writing library : x264 core 146 r2538 121396c
Encoding settings : cabac=1 / ref=4 / deblock=1:-1:-1 / analyse=0x3:0x133 / me=umh / subme=11 / psy=1 / psy_rd=1.00:0.15 / mixed_ref=1 / me_range=32 / chroma_me=1 / trellis=2 / 8x8dct=1 / cqm=0 / deadzone=21,11 / fast_pskip=0 / chroma_qp_offset=-3 / threads=12 / lookahead_threads=3 / sliced_threads=0 / nr=0 / decimate=1 / interlaced=0 / bluray_compat=0 / constrained_intra=0 / bframes=12 / b_pyramid=2 / b_adapt=2 / b_bias=0 / direct=3 / weightb=1 / open_gop=0 / weightp=2 / keyint=250 / keyint_min=23 / scenecut=40 / intra_refresh=0 / rc=2pass / mbtree=0 / bitrate=14000 / ratetol=1.0 / qcomp=0.60 / qpmin=0 / qpmax=69 / qpstep=4 / cplxblur=20.0 / qblur=0.5 / ip_ratio=1.40 / pb_ratio=1.30 / aq=2:1.00
Language : English
Default : Yes
Forced : No
Audio #1
ID : 2
Format : AC-3
Format/Info : Audio Coding 3
Mode extension : CM (complete main)
Format settings, Endianness : Big
Codec ID : A_AC3
Duration : 1 h 23 min
Bit rate mode : Constant
Bit rate : 192 kb/s
Channel(s) : 2 channels
Channel positions : Front: L R
Sampling rate : 48.0 kHz
Frame rate : 31.250 FPS (1536 spf)
Compression mode : Lossy
Stream size : 115 MiB (1%)
Title : Двухголосый, ОРТ
Language : Russian
Default : Yes
Forced : No
Audio #2
ID : 3
Format : AC-3
Format/Info : Audio Coding 3
Mode extension : CM (complete main)
Format settings, Endianness : Big
Codec ID : A_AC3
Duration : 1 h 23 min
Bit rate mode : Constant
Bit rate : 192 kb/s
Channel(s) : 2 channels
Channel positions : Front: L R
Sampling rate : 48.0 kHz
Frame rate : 31.250 FPS (1536 spf)
Compression mode : Lossy
Stream size : 115 MiB (1%)
Language : English
Default : No
Forced : No
Menu
00:00:00.000 : en:Chapter 00
00:12:38.007 : en:Chapter 01
00:20:01.074 : en:Chapter 02
00:27:52.128 : en:Chapter 03
00:39:19.690 : en:Chapter 04
00:50:13.427 : en:Chapter 05
01:01:11.084 : en:Chapter 06
01:09:21.824 : en:Chapter 07

Скриншоты:



[Цитировать]



Показать сообщения:    

Текущее время: 08-Дек 03:13

Часовой пояс: UTC + 3


Вы не можете начинать темы
Вы не можете отвечать на сообщения
Вы не можете редактировать свои сообщения
Вы не можете удалять свои сообщения
Вы не можете голосовать в опросах
Вы не можете прикреплять файлы к сообщениям
Вы не можете скачивать файлы

!ВНИМАНИЕ!
Сайт не предоставляет электронные версии произведений, а занимается лишь коллекционированием и каталогизацией ссылок, присылаемых и публикуемых на форуме нашими читателями. Если вы являетесь правообладателем какого-либо представленного материала и не желаете, чтобы ссылка на него находилась в нашем каталоге, свяжитесь с нами, и мы незамедлительно удалим ее. Файлы для обмена на трекере предоставлены пользователями сайта, и администрация не несет ответственности за их содержание. Просьба не заливать файлы, защищенные авторскими правами, а также файлы нелегального содержания!