[ Сегодня идет свободное скачивание без начисления Download ]


Статистика раздачи
Скачал: [ 5 ]
 
   
 
Top  
 
 
Кровный отец / Blood Father (2016) HDRip - Производство: Франция
Жанр: Боевик, Триллер, Криминал
Режиссер: Жан-Франсуа Рише
Продюсер: Крис Бриггс, Паскаль Кочето, Питер Крэйг
Актеры: Мэл Гибсон, Эрин Мориарти, Диего Луна, Майкл Паркс, Уильям Х. Мэйси, Мигель Сандовал, Дейл Дикки, Ричард Кебрал, Дэниэл Монкада, Райан Дорси
Описание:
17-летняя девушка попадает в серьёзные неприятности, и теперь за ней охотятся убийцы наркокартеля. Из близких у неё только отец — завязавший алкоголик и бывший заключённый, который даже особо не видел свою дочь и не принимал участия в её воспитании. Но родственников не выбирают, и девушке приходится обратиться к нему за помощью.

Рейтинг MPAA: R (лицам до 17 лет обязательно присутствие взрослого)
Дата мировой премьеры: 21 мая 2016
Релиз от: Scarabey
Продолжительность: 01:28:12
Качество видео: HDRip СЭМПЛ
Перевод: Многоголосый закадровый, профессиональный (студия "Paradox" & "Omskbird records")
Вид субтитров: Отсутствуют
Видео: Xvid, 720x304, ~1886 кб/с
Аудио: AC3, 6 ch, 448 кб/с, CBR

Mediainfo:

Общее
Полное имя                               : F:\Мои раздачи\Кровный отец\Blood.Father.2016.HDRip.avi
Формат                                   : AVI
Формат/Информация                        : Audio Video Interleave
Размер файла                             : 1,44 Гбайт
Продолжительность                        : 1 ч. 28 м.
Общий поток                              : 2343 Кбит/сек
Программа кодирования                    : VirtualDubMod 1.5.10.3 | [url=http://www.virtualdub-fr.org]www.virtualdub-fr.org[/url] || (build 2550/release)
Библиотека кодирования                   : VirtualDubMod build 2550/release
Видео
Идентификатор                            : 0
Формат                                   : MPEG-4 Visual
Профиль формата                          : Advanced Simple@L5
Параметр BVOP формата                    : 1
Параметр QPel формата                    : Нет
Параметр GMC формата                     : Без точки перехода
Параметр матрицы формата                 : Выборочная
Идентификатор кодека                     : XVID
Идентификатор кодека/Подсказка           : XviD
Продолжительность                        : 1 ч. 28 м.
Битрейт                                  : 1886 Кбит/сек
Ширина                                   : 720 пикселей
Высота                                   : 304 пикселя
Соотношение сторон                       : 2,35:1
Частота кадров                           : 23,976 кадра/сек
Цветовое пространство                    : YUV
Субдискретизация насыщенности            : 4:2:0
Битовая глубина                          : 8 бит
Тип развёртки                            : Прогрессивная
Метод сжатия                             : С потерями
Бит/(Пиксели*Кадры)                      : 0.359
Размер потока                            : 1,16 Гбайт (80%)
Библиотека кодирования                   : XviD 73
Аудио
Идентификатор                            : 1
Формат                                   : AC-3
Формат/Информация                        : Audio Coding 3
Расширение режима                        : CM (complete main)
Параметр Endianness формата              : Big
Идентификатор кодека                     : 2000
Продолжительность                        : 1 ч. 28 м.
Вид битрейта                             : Постоянный
Битрейт                                  : 448 Кбит/сек
Каналы                                   : 6 каналов
Расположение каналов                     : Front: L C R, Side: L R, LFE
Частота                                  : 48,0 КГц
Битовая глубина                          : 16 бит
Метод сжатия                             : С потерями
Размер потока                            : 283 Мбайт (19%)
Выравнивание                             : Разделение по промежуткам
Продолжительность промежутка             : 42  мс. (1,00 видеокадр)
Время предзагрузки промежутка            : 500  мс.
Скриншоты:

[Цитировать]



Показать сообщения:    

Текущее время: 11-Дек 07:14

Часовой пояс: UTC + 3


Вы не можете начинать темы
Вы не можете отвечать на сообщения
Вы не можете редактировать свои сообщения
Вы не можете удалять свои сообщения
Вы не можете голосовать в опросах
Вы не можете прикреплять файлы к сообщениям
Вы не можете скачивать файлы

!ВНИМАНИЕ!
Сайт не предоставляет электронные версии произведений, а занимается лишь коллекционированием и каталогизацией ссылок, присылаемых и публикуемых на форуме нашими читателями. Если вы являетесь правообладателем какого-либо представленного материала и не желаете, чтобы ссылка на него находилась в нашем каталоге, свяжитесь с нами, и мы незамедлительно удалим ее. Файлы для обмена на трекере предоставлены пользователями сайта, и администрация не несет ответственности за их содержание. Просьба не заливать файлы, защищенные авторскими правами, а также файлы нелегального содержания!