[ Сегодня идет свободное скачивание без начисления Download ]


Статистика раздачи
Нет
 
   
 
Top  
 
 
-System Of A Down - Rock in Rio [1080p] (2011) HDTV- Исполнитель: System Of A Down
Название: Rock in Riо
Год выпуска: 2011
Жанр: Концерт, Alternative metal
Продолжительность: 01:45:20
Состав:
Daron Malakian (Дарон Малакян)
Serj Tankian (Серж Танкян)
Shavarsh "Shavo" Odadjian (Шаварш "Шаво" Одаджян)
John Dolmayan (Джон Долмаян)
Видеокодек: H.264
Контейнер: TS
Битрейт видео: ~9200 Кбит/сек
Размер кадра: 1920 x 1080
Качество видео: HDTV
Аудиокодек: AC3
Битрейт аудио: 384 Кбит/сек
Треклист
1. Prison Song
2. Soldier Side - Intro
3. B.Y.O.B.
4. Revenga
5. Needles
6. Deer Dance
7. Radio/Video
8. Hypnotize

Треклист-продолжение

9. Question!
10. Suggestions
11. Psycho
12. Chop Suey!
13. Lonely Day
14. Bounce
15. Lost in Hollywood
16. Kill Rock 'n Roll
17. Forest
18. Science
19. Mind
20. Innervision
21. Holy Mountains
22. Aerials
23. Vicinity of Obscenity
24. Tentative
25. Cigaro
26. Suite-Pee
27. War?
28. Toxicity
29. Sugar

MediaInfo

MediaInfo]
Общее
Идентификатор : 56 (0x38)
Полное имя : SYSTEM OF A DOWN - ROCK IN RIO 2011-HD.ts
Формат : MPEG-TS
Размер файла : 7,48 Гбайт
Продолжительность : 1 ч. 45 м.
Режим общего битрейта : Переменный
Общий поток : 10,2 Мбит/сек
Видео
Идентификатор : 4163 (0x1043)
Идентификатор меню : 542 (0x21E)
Формат : AVC
Формат/Информация : Advanced Video Codec
Версия формата : Version 2
Профиль формата : [email protected]
Параметр CABAC формата : Да
Параметр ReFrames формата : 4 кадра
Идентификатор кодека : 27
Продолжительность : 1 ч. 45 м.
Битрейт : 9288 Кбит/сек
Максимальный битрейт : 12,0 Мбит/сек
Ширина : 1920 пикселей
Высота : 1080 пикселей
Соотношение сторон : 16:9
Частота кадров : 29,970 кадров/сек
Цветовое пространство : YUV
Субдискретизация насыщенности : 4:2:0
Битовая глубина : 8 бит
Тип развёртки : Чересстрочная
Порядок развёртки : Верхнее поле первое
Бит/(Пиксели*Кадры) : 0.149
Размер потока : 6,82 Гбайт (91%)
Основные цвета : BT.709
Характеристики трансфера : BT.709
Коэффициенты матрицы : BT.709
Аудио
Идентификатор : 4161 (0x1041)
Идентификатор меню : 542 (0x21E)
Формат : AC-3
Формат/Информация : Audio Coding 3
Профиль формата : Layer 2
Расширение режима : CM (complete main)
Параметр Endianness формата : Big
Идентификатор кодека : 129
Продолжительность : 1 ч. 45 м.
Вид битрейта : Постоянный
Битрейт : 384 Кбит/сек
Максимальный битрейт : 432 Кбит/сек
Каналы : 6 каналов
Расположение каналов : Front: L C R, Side: L R, LFE
Частота : 48,0 КГц
Битовая глубина : 16 бит
Метод сжатия : С потерями
Задержка видео : -836 мс.
Размер потока : 289 Мбайт (4%)
Язык : Portuguese
Скриншоты:
Время раздачи: 24/7

[Цитировать]



Показать сообщения:    

Текущее время: 05-Дек 23:40

Часовой пояс: UTC + 3


Вы не можете начинать темы
Вы не можете отвечать на сообщения
Вы не можете редактировать свои сообщения
Вы не можете удалять свои сообщения
Вы не можете голосовать в опросах
Вы не можете прикреплять файлы к сообщениям
Вы не можете скачивать файлы

!ВНИМАНИЕ!
Сайт не предоставляет электронные версии произведений, а занимается лишь коллекционированием и каталогизацией ссылок, присылаемых и публикуемых на форуме нашими читателями. Если вы являетесь правообладателем какого-либо представленного материала и не желаете, чтобы ссылка на него находилась в нашем каталоге, свяжитесь с нами, и мы незамедлительно удалим ее. Файлы для обмена на трекере предоставлены пользователями сайта, и администрация не несет ответственности за их содержание. Просьба не заливать файлы, защищенные авторскими правами, а также файлы нелегального содержания!