[ Сегодня идет свободное скачивание без начисления Download ]


Статистика раздачи
Нет
 
   
 
Top  
 
 
-Константин Никольский - Акустический концерт в Самаре (21.06.2012) HDCamRip [720p]- Оригинальное название: Константин Никольский - Акустический концерт в Самаре (21.06.2012)
Год выпуска: 2012
Жанр: Blues, rock
Описание фильма:
Акустический концерт Константина Никольского (экс-гр.Цветы, гр.Стаса Намина, Фестиваль, Воскресение, Зеркало Мира.....), данный им 21 июня 2012 года в Самарской Филармонии. Также в концерте принимает участие Игорь Кожин (гитара).
Трек-лист:
1. Мой друг художник и поэт.
2. На время отложены дела.
3. От любви к любви.
4. Спи,душа моя.
5. Голос.
6. Мне только снится жизнь моя.
7. Иллюзии.

Продолжение треклиста:

8. Музыкант.
9. Когда поймёшь умом.
10. Птицы белые мои.
11. Один взгляд назад(Ветерок).
12. Я сам из тех.
13. В моей душе осадок зла.
14. Ночная птица.
15. Прошедший день.

MediaInfo

Общее
Полное имя :К.Никольский.2012.HDCamRip.720p.mp4
Формат : MPEG-4
Профиль формата : Base Media / Version 2
Идентификатор кодека : mp42
Размер файла : 2,99 Гбайт
Продолжительность : 1 ч. 9 м.
Режим общего битрейта : Переменный
Общий поток : 6170 Кбит/сек
Дата кодирования : UTC 2012-06-22 18:42:54
Дата пометки : UTC 2012-06-22 18:42:54
Видео
Идентификатор : 1
Формат : MPEG-4 Visual
Профиль формата : [email protected]
Параметр BVOP формата : Нет
Параметр QPel формата : Нет
Параметр GMC формата : Без точки перехода
Параметр матрицы формата : Default (H.263)
Идентификатор кодека : 20
Продолжительность : 1 ч. 9 м.
Вид битрейта : Переменный
Битрейт : 5973 Кбит/сек
Максимальный битрейт : 8534 Кбит/сек
Ширина : 1280 пикселей
Высота : 720 пикселей
Соотношение сторон : 16:9
Режим частоты кадров : Постоянный
Частота кадров : 25,000 кадров/сек
Цветовое пространство : YUV
Субдискретизация насыщенности : 4:2:0
Битовая глубина : 8 бит
Тип развёртки : Прогрессивная
Метод сжатия : С потерями
Бит/(Пиксели*Кадры) : 0.259
Размер потока : 2,90 Гбайт (97%)
Язык : English
Дата кодирования : UTC 2012-06-22 18:42:54
Дата пометки : UTC 2012-06-22 18:42:54
Аудио
Идентификатор : 2
Формат : AAC
Формат/Информация : Advanced Audio Codec
Профиль формата : LC
Идентификатор кодека : 40
Продолжительность : 1 ч. 9 м.
Вид битрейта : Переменный
Битрейт : 192 Кбит/сек
Максимальный битрейт : 198 Кбит/сек
Каналы : 2 канала
Расположение каналов : Front: L R
Частота : 48,0 КГц
Метод сжатия : С потерями
Размер потока : 95,1 Мбайт (3%)
Язык : English
Дата кодирования : UTC 2012-06-22 18:42:54
Дата пометки : UTC 2012-06-22 18:42:54
Актеры: Константин Никольский и Игорь Кожин
Продолжительность: 01:09:29
Перевод: Не требуется
Язык: Русский
Релиз от: Эдмонд68
Видеокодек: MPEG-4 AVC/H.264
Битрейт видео: ~5973 kbps
Размер кадра: 1280x720, 16:9, 25 fps
Качество видео: HDCamRip
Аудиокодек: AAC
Битрейт аудио: 192 kbps, 2 ch, 48 kHz
Скриншоты:

Время раздачи: C 19:00 до 23:00

[Цитировать]



Показать сообщения:    

Текущее время: 06-Дек 22:57

Часовой пояс: UTC + 3


Вы не можете начинать темы
Вы не можете отвечать на сообщения
Вы не можете редактировать свои сообщения
Вы не можете удалять свои сообщения
Вы не можете голосовать в опросах
Вы не можете прикреплять файлы к сообщениям
Вы не можете скачивать файлы

!ВНИМАНИЕ!
Сайт не предоставляет электронные версии произведений, а занимается лишь коллекционированием и каталогизацией ссылок, присылаемых и публикуемых на форуме нашими читателями. Если вы являетесь правообладателем какого-либо представленного материала и не желаете, чтобы ссылка на него находилась в нашем каталоге, свяжитесь с нами, и мы незамедлительно удалим ее. Файлы для обмена на трекере предоставлены пользователями сайта, и администрация не несет ответственности за их содержание. Просьба не заливать файлы, защищенные авторскими правами, а также файлы нелегального содержания!