[ Сегодня идет свободное скачивание без начисления Download ]


Статистика раздачи
Нет
 
   
 
Top  
 
 
-Helene Fischer - Live/Zum ersten Mal mit Band und Orchester (2011) BDRip [720p]- Оригинальное название: Helene Fischer - Live/Zum ersten Mal mit Band und Orchester
Производство: EMI Music Germany GmbH
Год выпуска: 2011
Жанр: Pop
Описание: Концерт прошел 26 июня 2011 года в Кёльне (Германия) , при огромном стечении людей, билеты распроданы за месяц вперед и зал оказался переполнен.
Продолжительность: 02:44:19
Язык: Немецкий (русский, украинский, английский)
Перевод: Отсутствует
О певице: Helene Fischer (имя при рождении — Елена Петровна Фишер). Елена родилась в Красноярске 5 августа 1984 года в семье Петра и Марины Фишер. Отец Лены работал учителем физкультуры, а мать — инженером на кафедре одного из вузов. Родители Петра Фишера принадлежат к Поволжским немцам и были сосланы в Сибирь в 1941 году. В июне 1988 года семья Фишеров как и тысячи других российских немцев эмигрировала в Германию как «немецкие переселенцы». В Германии Фишеры селятся в Вёлльштайне в Земле Рейнланд-Пфальц. После окончания школы Хелена оканчивает частную музыкальную школу Stage & Musical School во Франкфурте-на-Майне. Ещё во время её трёхгодичного обучения Хелена выступает на сцене Государственного Театра в Дармштадте, а также на сцене Народного Театра во Франкфурте.
Знаменитой девушка стала благодаря своему таланту и настойчивости мамы Марины, которая тайком от дочери пыталась «продвинуть» CD с песнями в хорошие руки. Маме повезло: диск попал к известному продюсеру Жану Франкфуртеру. Его именем, например, подписан весь репертуар группы «Арабески». Франкфуртер сделал из исполнительницы мюзиклов настоящую звезду. В феврале 2006 года у Хелен Фишер вышел альбом Von Hier Bis Unendlich («Отсюда — до бесконечности»), который публика оставила без внимания. В июне 2007 года — второй альбом So Nah Wie Du («Так близко, как ты…»). И тут началось…
Альбом сразу попал в первые десятки хит-парадов в Германии и Австрии. В Австрии он не покидает хит-парад уже больше года, стал четырежды золотым и один раз платиновым. Кстати, благодаря второму и первый альбом певицы стал дважды золотым и один раз платиновым. Продажи легальных копий альбомов Хелен Фишер составляют около 1,5 млн. экземпляров! В январе 2008 года Хелен получила «Корону народной музыки» — как лучшая молодая исполнительница шлягера. В июне 2008 года вышел третий альбом Zaubermond («Волшебная луна»).
Сегодня Лена поёт на немецком. Благодаря этим песням к ней пришла слава. Но на концертах блистательная звезда Германии Хелен Фишер часто исполняет русские народные песни и символическую «Я родилась в Сибири».А ещё звезда не скрывает — ей очень хочется приехать в родной Красноярск и познакомиться с городом, где началась её жизнь.
Официальный сайт певицы: http://www.helene-fischer.de/hf/
Пример выступления: http://www.youtube.com/watch?v=Yu5xG60lmBg

Tracklist:

01. Von Hier Bis Unendlich (Live 2011)
02. Lass Mich In Dein Leben (Live 2011)
03. Die Sonne Kann Warten (Live 2011)
04. Frag Nicht Wo Und Wann (Live 2011)
05. Manchmal Kommt Die Liebe Einfach So (Live 2011)
06. Medley 1 (Live 2011)
07. Medley 2 (Live 2011)
08. Russisches Medley (Live 2011)
09. Verlieb Dich Nie Nach Mitternacht (Live 2011)
10. Ewig Ist Manchmal Zu Lang (Live 2011)
11. Big Spender (Live 2011)
12. Send In The Clowns (Live 2011)
13. Memory (Live 2011)
14. Ich Will Immer Wieder... Dieses Fieber Sp?r'n (Live 2011)
15. We Will Rock You (Live 2011)
16. Who Wants To Live Forever (Live 2011)
17. The Show Must Go On (Live 2011)
18. We Are The Champions (Live 2011)
19. Nicht Von Dieser Welt (Live 2011)
20. Von Null Auf Sehnsucht (Live 2011)
21. Pokerface (Live 2011)
22. Ich Glaub' Dir Hundert L?gen (Live 2011)
23. Du Hast Mein Herz Ber?hrt (Live 2011)
24. Du F?ngst Mich Auf Und L??t Mich Fliegen (Live 2011)
25. Du L??t Mich Sein, So Wie Ich Bin (Live 2011)
26. The Prayer - Duett Mit Michael Bolton (Live 2011)
27. Vivo Per Lei - Duett Mit Michael Bolton (Live 2011)
28. Mitten Im Paradies (Live 2011)
29. Mal Ganz Ehrlich (Live 2011)
30. Hundert Prozent (Live 2011)
31. Und Morgen Fr?h K?ss Ich Dich Wach (Live 2011)
32. What A Wonderful World (Live 2011)
Видеокодек: MPEG-4 AVC/H.264
Битрейт видео: ~8 900 Kbps
Размер кадра: 1280 x 720
Качество видео: BDRip
Аудиокодек: DTS 5.1
Битрейт аудио: 1509 Kbps
Скриншоты:

Mediainfo

Полное имя : Helene Fischer - Live 2011 720p Blu-ray DTS 5.1 x264-DON.mkv
Формат : Matroska
Версия формата : Version 2
Размер файла : 12,2 Гбайт
Продолжительность : 2 ч. 44 м.
Общий поток : 10,6 Мбит/сек
Название фильма : ENCODED BY DON 2012
Дата кодирования : UTC 2012-02-08 18:21:35
Программа кодирования : mkvmerge v5.2.1 ('A Far Off Place') built on Jan 2 2012 23:21:10
Библиотека кодирования : libebml v1.2.3 + libmatroska v1.3.0
Видео
Идентификатор : 1
Формат : AVC
Формат/Информация : Advanced Video Codec
Профиль формата : High@L4.1
Параметр CABAC формата : Да
Параметр ReFrames формата : 5 кадров
Идентификатор кодека : V_MPEG4/ISO/AVC
Продолжительность : 2 ч. 44 м.
Битрейт : 8901 Кбит/сек
Ширина : 1280 пикселей
Высота : 720 пикселей
Соотношение сторон : 16:9
Режим частоты кадров : Постоянный
Частота кадров : 25,000 кадров/сек
Цветовое пространство : YUV
Субдискретизация насыщенности : 4:2:0
Битовая глубина : 8 бит
Тип развёртки : Прогрессивная
Бит/(Пиксели*Кадры) : 0.386
Размер потока : 10,2 Гбайт (84%)
Заголовок : DON 2012
Библиотека кодирования : x264 core 116 r2074 2641b9e
Настройки программы : cabac=1 / ref=5 / deblock=1:-3:-3 / analyse=0x3:0x113 / me=umh / subme=8 / psy=1 / psy_rd=1.00:0.00 / mixed_ref=1 / me_range=16 / chroma_me=1 / trellis=2 / 8x8dct=1 / cqm=0 / deadzone=21,11 / fast_pskip=0 / chroma_qp_offset=-2 / threads=6 / sliced_threads=0 / nr=0 / decimate=0 / interlaced=0 / bluray_compat=0 / constrained_intra=0 / bframes=3 / b_pyramid=2 / b_adapt=2 / b_bias=0 / direct=3 / weightb=1 / open_gop=0 / weightp=2 / keyint=250 / keyint_min=25 / scenecut=40 / intra_refresh=0 / rc_lookahead=50 / rc=crf / mbtree=1 / crf=18.0 / qcomp=0.80 / qpmin=10 / qpmax=51 / qpstep=4 / vbv_maxrate=50000 / vbv_bufsize=62500 / crf_max=0.0 / nal_hrd=none / ip_ratio=1.40 / aq=1:0.80
Язык : German
Default : Да
Forced : Нет
Аудио
Идентификатор : 2
Формат : DTS
Формат/Информация : Digital Theater Systems
Режим : 16
Параметр Endianness формата : Big
Идентификатор кодека : A_DTS
Продолжительность : 2 ч. 44 м.
Вид битрейта : Постоянный
Битрейт : 1509 Кбит/сек
Каналы : 6 каналов
Расположение каналов : Front: L C R, Side: L R, LFE
Частота : 48,0 КГц
Битовая глубина : 24 бит
Метод сжатия : С потерями
Размер потока : 1,73 Гбайт (14%)
Заголовок : DTS 5.1
Язык : German
Default : Да
Forced : Нет

Обложка оригинального диска

[Цитировать]



Показать сообщения:    

Текущее время: 10-Дек 17:37

Часовой пояс: UTC + 3


Вы не можете начинать темы
Вы не можете отвечать на сообщения
Вы не можете редактировать свои сообщения
Вы не можете удалять свои сообщения
Вы не можете голосовать в опросах
Вы не можете прикреплять файлы к сообщениям
Вы не можете скачивать файлы

!ВНИМАНИЕ!
Сайт не предоставляет электронные версии произведений, а занимается лишь коллекционированием и каталогизацией ссылок, присылаемых и публикуемых на форуме нашими читателями. Если вы являетесь правообладателем какого-либо представленного материала и не желаете, чтобы ссылка на него находилась в нашем каталоге, свяжитесь с нами, и мы незамедлительно удалим ее. Файлы для обмена на трекере предоставлены пользователями сайта, и администрация не несет ответственности за их содержание. Просьба не заливать файлы, защищенные авторскими правами, а также файлы нелегального содержания!