[ Сегодня идет свободное скачивание без начисления Download ]


Статистика раздачи
Нет
 
   
 
Top  
 
 
- СупердискотЭка / Супердискотека 90-х. Санкт-Петербург, СКК (11.01.2013) HDTV [1080i]- Режиссер / Телекомпания: Первый канал HD
Русское название: Супердискотека 90-х
Год выпуска: 2012
Жанр: Концерт
Описание фильма:
СупердискотЭка 90-х - легендарный ретромегадэнс, собирающий ежегодно десятки тысяч человек в Санкт-Петербурге и Москве. Каждую СупердискотЭку 90-х в прямом эфире транслирует канал MTV, а в праздничные дни 1 января и 12 июня СупердискотЭку 90-х показывали по Первому каналу и ее смотрела вся Россия. СупердискотЭка 90-х возвращает в детство, когда мы обменивались на переменке вкладышами, вырывали странички с замечаниями из дневника, спешили домой рубиться в Сегу и Денди, а по вечерам всей семьей смотрели Санта-Барбару.
Продолжительность: ~ 01:27:57
Видеокодек: MPEG-TS (AVC)
Битрейт видео: ~10,7 Мбит/сек
Размер кадра: 1920 х 1080
Качество видео: HDTV
Аудио: AC3, 2ch., 384 Кбит/сек

Трек-лист:

01. Дискотека Авария - Новогодняя
02. Татьяна Булавнова - Мой ненаглядный
03. Руки вверх! - Крошка моя (Live)
04. Руки вверх! - Лишь о тебе мечтая (Live)
05. Natalia Oreiro - Cambio Dolor
06. Natalia Oreiro - Tu Veneno
07. Нэнси - Дым сигарет с ментолом (Live)
08. Вирус - Ручки
09. Алена Апина - Ксюша
10. Алена Апина - Электричка
11. Олег Горшков - Летчик
12. La Bouche - Be My Lover
13. Ирина Салтыкова - Голубые глазки
14. Саша Зверева - Дождик
15. Кар-мэн - Чао, бамбино
16. Кар-мэн - Лондон, гуд-бай
17. Оксана Почепа Акула - Кислотный DJ
18. Lika Star - динокая луна
19. Lika Star - Би-би, такси
20. DJ BoBo - Chihuahua (Live)
21. Юля Волкова - Я сошла с ума
22. Юля Волкова - Нас не догонят

MediaInfo

Формат : MPEG-TS
Размер файла : 7,16 Гбайт
Продолжительность : 1 ч. 27 м.
Общий поток : 11,7 Мбит/сек
Видео
Идентификатор : 305 (0x131)
Идентификатор меню : 1 (0x1)
Формат : AVC
Формат/Информация : Advanced Video Codec
Профиль формата : High@L4.0
Параметр CABAC формата : Да
Параметр ReFrames формата : 3 кадра
Идентификатор кодека : 27
Продолжительность : 1 ч. 27 м.
Битрейт : 10,7 Мбит/сек
Ширина : 1920 пикселей
Высота : 1080 пикселей
Соотношение сторон : 16:9
Частота кадров : 25,000 кадров/сек
Стандарт вещания : Component
Цветовое пространство : YUV
Субдискретизация насыщенности : 4:2:0
Битовая глубина : 8 бит
Тип развёртки : Чересстрочная
Порядок развёртки : Верхнее поле первое
Бит/(Пиксели*Кадры) : 0.206
Размер потока : 6,57 Гбайт (92%)
Основные цвета : BT.709-5, BT.1361, IEC 61966-2-4, SMPTE RP177
Характеристики трансфера : BT.709-5, BT.1361
Коэффициенты матрицы : BT.709-5, BT.1361, IEC 61966-2-4 709, SMPTE RP177
Аудио
Идентификатор : 415 (0x19F)
Идентификатор меню : 1 (0x1)
Формат : AC-3
Формат/Информация : Audio Coding 3
Расширение режима : CM (complete main)
Идентификатор кодека : 6
Продолжительность : 1 ч. 27 м.
Вид битрейта : Постоянный
Битрейт : 384 Кбит/сек
Каналы : 2 канала
Расположение каналов : Front: L R
Частота : 48,0 КГц
Битовая глубина : 16 бит
Метод сжатия : С потерями
Размер потока : 242 Мбайт (3%)
Язык : Russian
Скриншоты: Rip by dimich24
СупердискотЭка / Супердискотека 90-х на NNM

[Цитировать]



Показать сообщения:    

Текущее время: 10-Дек 17:43

Часовой пояс: UTC + 3


Вы не можете начинать темы
Вы не можете отвечать на сообщения
Вы не можете редактировать свои сообщения
Вы не можете удалять свои сообщения
Вы не можете голосовать в опросах
Вы не можете прикреплять файлы к сообщениям
Вы не можете скачивать файлы

!ВНИМАНИЕ!
Сайт не предоставляет электронные версии произведений, а занимается лишь коллекционированием и каталогизацией ссылок, присылаемых и публикуемых на форуме нашими читателями. Если вы являетесь правообладателем какого-либо представленного материала и не желаете, чтобы ссылка на него находилась в нашем каталоге, свяжитесь с нами, и мы незамедлительно удалим ее. Файлы для обмена на трекере предоставлены пользователями сайта, и администрация не несет ответственности за их содержание. Просьба не заливать файлы, защищенные авторскими правами, а также файлы нелегального содержания!