[ Сегодня идет свободное скачивание без начисления Download ]


Статистика раздачи
Скачал: [ 3 ]
 
   
 
Top  
 
 
Маленький купальщик / Le Petit baigneur
Информация о фильме
Название: Маленький купальщик
Оригинальное название: Le Petit baigneur
Год выхода: 1968
Жанр: Комедия
Режиссер: Робер Дери
В ролях: Луи де Фюнес, Андреа Паризи, Франко Фабрици, Мишель Александр, Николь Вервиль, Робер Роллис, Жорж Аде, Филипп Дюма, Жерар Кальви, Роже Качча, Элен Дьедонне, Пьер Торнад, Пьер Дак, Анри Жене, Жак Легра, Мишель Галабрю, Колетт Броссе, Робер Дери
О фильме:
Крупный судостроительный магнат Луис-Филипп Форшом опрометчиво выгоняет своего ведущего конструктора Кастанье после того, как один из его кораблей тонет прямо во время церемонии спуска.
Однако скоро Форшом узнает, что яхта, спроектированная Кастанье, выиграла престижную регату в Сан-Ремо. Форшом бросается на поиски своего бывшего служащего, заваленного теперь предложениями от конкурентов, чтобы вернуть его любыми средствами.

Страна: Франция, Италия
Студия: Fono Roma, Les Films Copernic, Les Films Corona, Selenia Cinematografica
Продолжительность: 01:33:13
Перевод: Профессиональный (полное дублирование)[Советский дубляж, Мосфильм]
Файл
Качество: BDRip 720p
Формат: MKV
Кодек: MPEG-4 AVC
Видео: 1280x544 (2,35:1), 24 fps, MPEG-4 AVC ~7110 Кbps avg, 0.425 bit/pixel
Аудио: АС3, 48 kHz, 2 ch, ~192.00 kbps avg | русский | Профессиональный (полное дублирование)[Советский дубляж, Мосфильм]
Аудио: АС3, 48 kHz, 2 ch, ~320.00 kbps avg | французский | Оригинал
Субтитры: Английские, французские, немецкие
Семпл

Инфо-файл

Общее
Уникальный идентификатор : 216193514353641145656613690488010451051 (0xA2A55B36F98CA9F2973D5909E5C6286B)
Полное имя : D:Le.Petit.Baigneur.1968.720p.BluRay.Rus.Fre.HDCLUB-CtrlHD.mkv
Формат : Matroska
Версия формата : Version 4 / Version 2
Размер файла : 5,06 Гбайт
Продолжительность : 1 ч. 33 м.
Общий поток : 7777 Кбит/сек
Дата кодирования : UTC 2016-10-07 08:52:28
Программа кодирования : mkvmerge v9.4.2 ('So High') 64bit
Библиотека кодирования : libebml v1.3.4 + libmatroska v1.4.5
Attachements : cover.jpg
DURATION : 01:33:12.736000000
NUMBER_OF_FRAMES : 174773
NUMBER_OF_BYTES : 134225664
_STATISTICS_WRITING_APP : mkvmerge v9.4.2 ('So High') 64bit
_STATISTICS_WRITING_DATE_UTC : 2016-10-07 08:52:28
_STATISTICS_TAGS : BPS DURATION NUMBER_OF_FRAMES NUMBER_OF_BYTES
Видео
Идентификатор : 1
Формат : AVC
Формат/Информация : Advanced Video Codec
Профиль формата : High@L4.1
Параметр CABAC формата : Да
Параметр ReFrames формата : 12 кадров
Идентификатор кодека : V_MPEG4/ISO/AVC
Продолжительность : 1 ч. 33 м.
Битрейт : 7110 Кбит/сек
Ширина : 1280 пикселей
Высота : 544 пикселя
Соотношение сторон : 2,35:1
Режим частоты кадров : Постоянный
Частота кадров : 24,000 кадра/сек
Цветовое пространство : YUV
Субдискретизация насыщенности : 4:2:0
Битовая глубина : 8 бит
Тип развёртки : Прогрессивная
Бит/(Пиксели*Кадры) : 0.425
Размер потока : 4,63 Гбайт (91%)
Заголовок : Le Petit Baigneur (1968)
Библиотека кодирования : x264 core 148 r2705kMod 3f5ed56
Настройки программы : cabac=1 / ref=12 / deblock=1:-3:-3 / analyse=0x3:0x133 / me=umh / subme=10 / psy=1 / fade_compensate=0.00 / psy_rd=1.05:0.00 / mixed_ref=1 / me_range=16 / chroma_me=1 / trellis=2 / 8x8dct=1 / cqm=0 / deadzone=21,11 / fast_pskip=0 / chroma_qp_offset=-2 / threads=6 / lookahead_threads=1 / sliced_threads=0 / nr=0 / decimate=0 / interlaced=0 / bluray_compat=0 / constrained_intra=0 / fgo=0 / bframes=8 / b_pyramid=2 / b_adapt=2 / b_bias=0 / direct=3 / weightb=1 / open_gop=0 / weightp=2 / keyint=250 / keyint_min=24 / scenecut=40 / intra_refresh=0 / rc_lookahead=60 / rc=crf / mbtree=0 / crf=17.0000 / qcomp=0.70 / qpmin=0 / qpmax=69 / qpstep=4 / vbv_maxrate=12500 / vbv_bufsize=12500 / crf_max=0.0 / nal_hrd=none / filler=0 / ip_ratio=1.30 / pb_ratio=1.20 / aq=1:0.80
Язык : French
Default : Да
Forced : Нет
DURATION : 01:33:12.709000000
NUMBER_OF_FRAMES : 134225
NUMBER_OF_BYTES : 5076938766
_STATISTICS_WRITING_APP : mkvmerge v9.4.2 ('So High') 64bit
_STATISTICS_WRITING_DATE_UTC : 2016-10-07 08:52:28
_STATISTICS_TAGS : BPS DURATION NUMBER_OF_FRAMES NUMBER_OF_BYTES
Аудио #1
Идентификатор : 2
Формат : AC-3
Формат/Информация : Audio Coding 3
Расширение режима : CM (complete main)
Параметр Endianness формата : Big
Идентификатор кодека : A_AC3
Продолжительность : 1 ч. 33 м.
Вид битрейта : Постоянный
Битрейт : 192 Кбит/сек
Каналы : 2 канала
Расположение каналов : Front: L R
Частота : 48,0 КГц
Метод сжатия : С потерями
Размер потока : 128 Мбайт (2%)
Язык : Russian
Default : Да
Forced : Нет
Аудио #2
Идентификатор : 3
Формат : AC-3
Формат/Информация : Audio Coding 3
Расширение режима : CM (complete main)
Параметр Endianness формата : Big
Идентификатор кодека : A_AC3
Продолжительность : 1 ч. 33 м.
Вид битрейта : Постоянный
Битрейт : 320 Кбит/сек
Каналы : 2 канала
Расположение каналов : Front: L R
Частота : 48,0 КГц
Метод сжатия : С потерями
Размер потока : 213 Мбайт (4%)
Язык : French
Default : Нет
Forced : Нет
Текст #1
Идентификатор : 4
Формат : UTF-8
Идентификатор кодека : S_TEXT/UTF8
Идентификатор кодека/Информация : UTF-8 Plain Text
Заголовок : French-forced
Язык : French
Default : Нет
Forced : Нет
Текст #2
Идентификатор : 5
Формат : UTF-8
Идентификатор кодека : S_TEXT/UTF8
Идентификатор кодека/Информация : UTF-8 Plain Text
Заголовок : English
Язык : English
Default : Нет
Forced : Нет
Текст #3
Идентификатор : 6
Формат : UTF-8
Идентификатор кодека : S_TEXT/UTF8
Идентификатор кодека/Информация : UTF-8 Plain Text
Заголовок : German
Язык : German
Default : Нет
Forced : Нет
Меню
00:00:00.000 : en:Chapter 1
00:08:04.458 : en:Chapter 2
00:15:26.458 : en:Chapter 3
00:22:29.917 : en:Chapter 4
00:32:12.750 : en:Chapter 5
00:39:09.417 : en:Chapter 6
00:45:18.542 : en:Chapter 7
00:52:54.708 : en:Chapter 8
01:00:11.333 : en:Chapter 9
01:09:47.708 : en:Chapter 10
01:17:07.292 : en:Chapter 11
01:25:16.833 : en:Chapter 12

Скриншоты

[Цитировать]

Топик был перенесен из форума Классика мирового кинематографа в форум Классика зарубежного кино (HD Video)
Scorpio



Показать сообщения:    

Текущее время: 10-Дек 19:39

Часовой пояс: UTC + 3


Вы не можете начинать темы
Вы не можете отвечать на сообщения
Вы не можете редактировать свои сообщения
Вы не можете удалять свои сообщения
Вы не можете голосовать в опросах
Вы не можете прикреплять файлы к сообщениям
Вы не можете скачивать файлы

!ВНИМАНИЕ!
Сайт не предоставляет электронные версии произведений, а занимается лишь коллекционированием и каталогизацией ссылок, присылаемых и публикуемых на форуме нашими читателями. Если вы являетесь правообладателем какого-либо представленного материала и не желаете, чтобы ссылка на него находилась в нашем каталоге, свяжитесь с нами, и мы незамедлительно удалим ее. Файлы для обмена на трекере предоставлены пользователями сайта, и администрация не несет ответственности за их содержание. Просьба не заливать файлы, защищенные авторскими правами, а также файлы нелегального содержания!