[ Сегодня идет свободное скачивание без начисления Download ]


Статистика раздачи
Нет
 
   
 
Top  
 
 
-Песня года 2012 (1 часть) (2013) 1080i HDTVRip- Название: Песня года 2012 (1 часть)
Год выпуска: 2013
Жанр: Концерт, Телепередача
Описание:
На телеканале "Россия" - главный концерт страны! Участвуют все звезды! Концерт "Песня года" в Москве – это своеобразное подведение итогов. Каждый уходящий год – это отдельный музыкальный сезон, в котором были свои дебюты и свои провалы, взлеты и падения. По итогам каждого музыкального сезона звездное жюри отбирает лучшие композиции. Так "Песня года" в Москве собирает вместе давно известных артистов и тех, кто только дебютирует на эстраде. Они исполняют свои хиты, которые пользовались наибольшей популярностью в ушедшем году. Просмотр этого шоу на телеканале "Россия" – одна наших новогодних традиций. У многих из нас этот фестиваль ассоциируется с наступлением нового года.
В концерте принимают участие: София Ротару, Валерия, Дмитрий Билан, Лайма Вайкуле, Валерий Леонтьев, Игорь Николаев, Алсу, Леонид Агутин, Кристина Орбакайте, Анжелика Варум, Лолита, Богдан Титомир, Юлия Савичева, Лев Лещенко, Жасмин, Андрей Данилко и многие другие.
Ведущий: Лера Кудрявцева и Сергей Лазарев
Продолжительность: 02:11:24
Видеокодек: AVC
Битрейт видео: ~12.6 Mбит/с
Размер кадра: 1920x1080 (16:9)
Качество видео: HDTVRip 1080i
Аудиокодек: MP2 2.0
Битрейт аудио: 224 Кбит/с

MediaInfo

Общее
Идентификатор : 1 (0x1)
Полное имя : D:\Torrent\Pesnya.Goda.part.1.HDTV.1080i.ts
Формат : MPEG-TS
Размер файла : 12,4 Гбайт
Продолжительность : 2 ч. 11 м.
Общий поток : 13,5 Мбит/сек
Видео
Идентификатор : 1901 (0x76D)
Идентификатор меню : 1 (0x1)
Формат : AVC
Формат/Информация : Advanced Video Codec
Профиль формата : [email protected]
Параметр CABAC формата : Да
Параметр ReFrames формата : 3 кадра
Идентификатор кодека : 27
Продолжительность : 2 ч. 11 м.
Битрейт : 12,6 Мбит/сек
Ширина : 1920 пикселей
Высота : 1080 пикселей
Соотношение сторон : 16:9
Частота кадров : 25,000 кадров/сек
Стандарт вещания : Component
Цветовое пространство : YUV
Субдискретизация насыщенности : 4:2:0
Битовая глубина : 8 бит
Тип развёртки : Чересстрочная
Порядок развёртки : Верхнее поле первое
Бит/(Пиксели*Кадры) : 0.243
Размер потока : 11,6 Гбайт (93%)
Основные цвета : BT.709-5, BT.1361, IEC 61966-2-4, SMPTE RP177
Характеристики трансфера : BT.709-5, BT.1361
Коэффициенты матрицы : BT.709-5, BT.1361, IEC 61966-2-4 709, SMPTE RP177
Аудио
Идентификатор : 2901 (0xB55)
Идентификатор меню : 1 (0x1)
Формат : MPEG Audio
Версия формата : Version 1
Профиль формата : Layer 2
Идентификатор кодека : 3
Продолжительность : 2 ч. 11 м.
Вид битрейта : Постоянный
Битрейт : 224 Кбит/сек
Каналы : 2 канала
Частота : 48,0 КГц
Метод сжатия : С потерями
Размер потока : 211 Мбайт (2%)
Язык : Russian
Скриншоты:

[Цитировать]



Показать сообщения:    

Текущее время: 04-Дек 02:57

Часовой пояс: UTC + 3


Вы не можете начинать темы
Вы не можете отвечать на сообщения
Вы не можете редактировать свои сообщения
Вы не можете удалять свои сообщения
Вы не можете голосовать в опросах
Вы не можете прикреплять файлы к сообщениям
Вы не можете скачивать файлы

!ВНИМАНИЕ!
Сайт не предоставляет электронные версии произведений, а занимается лишь коллекционированием и каталогизацией ссылок, присылаемых и публикуемых на форуме нашими читателями. Если вы являетесь правообладателем какого-либо представленного материала и не желаете, чтобы ссылка на него находилась в нашем каталоге, свяжитесь с нами, и мы незамедлительно удалим ее. Файлы для обмена на трекере предоставлены пользователями сайта, и администрация не несет ответственности за их содержание. Просьба не заливать файлы, защищенные авторскими правами, а также файлы нелегального содержания!