[ Сегодня идет свободное скачивание без начисления Download ]


Статистика раздачи
Нет
 
   
 
Top  
 
 
- Рождественские встречи Аллы Пугачевой (2013.01.07) HDTV [1080i]- Режиссер / Телекомпания: Первый канал
Русское название: Рождественские встречи Аллы Пугачевой
Год выпуска: 2013
Жанр: Тв-Шоу
Описание:
"Рождественские встречи" - ежегодный концерт-фестиваль, который с 1988 года в конце декабря проводит Алла Пугачева. С тех пор, проект считается одним из самых популярных у зрителей и одним из самых престижных для многих представителей отечественного шоу-бизнеса. В разные годы "Рождественские встречи" подарили нам многих звезд – Владимира Преснякова (младшего), Жанну Агузарову, Валерия Меладзе, группу "Високосный год" и других. Спустя 10 лет авторский проект Аллы Пугачевой вернулся на телеэкраны. И вновь на сцене - Алла Пугачева и ее знаменитые друзья и гости. Будут и песни, и танцы, и сюрпризы, и, даже, признания
Девиз "Рождественских встреч" остался неизменным: "Пусть новые "звезды" зажгутся, а старые – не упадут!".Так в концерте примут участие: Группа Fanatika, группа "Мачете", Ёлка, Алишер, "Город 312", Ольга Кормухина, Борис Моисеев, Пелагея, Ева Польна, Владимир Пресняков, Тимур Родригез, Александр Буйнов, Лолита, Кристина Орбакайте, Денис Майданов, Филипп Киркоров, Светлана Лобода, "Би-2", "А-Студио", Евгений Маргулис, Стас Пьеха, "Ундервуд", Жанна Агузарова
В этот вечер прозвучат и несколько песен от Примадонны, одна из которых трогательная композиция "Ты не стал моей судьбой" из легендарного кинофильма "Женщина, которая поет".
Алла Пугачева: "Я прекратила гастрольную деятельность, а петь – нет. Ведь для меня пение - это не работа, не распорядок дня, не самоцель, это порыв души"
Продолжительность: ~ 02:22:40
Видеокодек: MPEG-TS (AVC)
Битрейт видео: ~10,5 Мбит/сек
Размер кадра: 1920 x 1080
Качество видео: HDTV
Аудиокодек: AC-3, 2ch.
Битрейт аудио: 384 kb/s

Треклист

01. Алла Пугачева - "Добраться домой" (А. Мисин, Н.Камлюк)
02. Алла Пугачева - "Где же ты, любовь" (И.Корнилов, И.Каминская)
03. FANATIKA - "Этот мир" (И.Привалов, И.Долматов, И.Привалов)
04. Группа "Мачете" - "Папа" (Я. Малый)
05. Елка - "Знаки вопроса" (А.Сахаров)
06. Алишер - "Бабло" (Алишер, О.Влади)
07. Группа "Город 312" - "Помоги" (Д.Притула, Л.Притула)
08. Ольга Кормухина - "Путь" (С.Саватеев)
09. Алишер - "Каждый шаг" (Алишер, О.Влади)
10. Алла Пугачева - "Падения и взлеты" (О.Влади)
11. Борис Моисеев - "Я буду жить сейчас" (Д.Майданов)
12. Пелагея - "У колодезя вода" (сл.и муз. народные)
13. Ева Польна - "Не расставаясь" (Е.Польна)
14. Владимир Пресняков мл. - "Никудышний ангел" (С.Трофимов)
15. Тимур Родригес - "Болен тобой" (Т.Родригес,Е.Скрипкин, Д.Мигдал)
16. Алла Пугачева - "Ты не стал судьбой" (А.Зацепин, Л.Дербенев)
17. Александр Буйнов - "Не прогоняй меня" (И.Корнилов)
18. Лолита - "Я" (Ю.Юрченко)
19. Кристина Орбакайте - "Раз и навсегда" (О.Влади)
20. Денис Майданов - "Пролетая над нами" (Д.Майданов)
21. Филипп Киркоров - "Зу-зу" ( А.Ружицкий, Д.Лик)
22. Филипп Киркоров - "Птица в груди" (A.Hyvarinen, A.Koivista, А.Вулых)
23. Светлана Лобода - "40 градусов" (Д.С.Монатик, С.С.Лобода)
24. Группа Би-2 - "Молитва" (Шура Би-2 - И.Бортник, Ян Николенко)
25. А Студио - "Хочу любви" (Смит, Н.Елисеев, Ю.Усачев)
26. Жанна Агузарова - "Счастье придет"
27. Алла Пугачева - "Вот и все" (О.Влади)
28. Евгений Маргулис - "R&R" (Е.Маргулис)
29. Стас Пьеха - "Крылья" (С.Трофимов)
30. Мачете - "Пока все так" (Я.Малый)
31. Ундервуд - "Это судьба" (В.Ткаченко, М.Кучеренко)
32. Город 312 - "Нас миллионы" (Д.Притула, Л.Притула)
33. Филипп Киркоров - "Это же жизнь" (D.Michael, R.Vincen, А.Лопатин)

MediaInfo

Формат : MPEG-TS
Размер файла : 11,5 Гбайт
Продолжительность : 2 ч. 22 м.
Общий поток : 11,5 Мбит/сек
Видео
Идентификатор : 305 (0x131)
Идентификатор меню : 1 (0x1)
Формат : AVC
Формат/Информация : Advanced Video Codec
Профиль формата : High@L4.0
Параметр CABAC формата : Да
Параметр ReFrames формата : 3 кадра
Идентификатор кодека : 27
Продолжительность : 2 ч. 22 м.
Битрейт : 10,5 Мбит/сек
Ширина : 1920 пикселей
Высота : 1080 пикселей
Соотношение сторон : 16:9
Частота кадров : 25,000 кадров/сек
Стандарт вещания : Component
Цветовое пространство : YUV
Субдискретизация насыщенности : 4:2:0
Битовая глубина : 8 бит
Тип развёртки : Чересстрочная
Порядок развёртки : Верхнее поле первое
Бит/(Пиксели*Кадры) : 0.203
Размер потока : 10,5 Гбайт (92%)
Основные цвета : BT.709-5, BT.1361, IEC 61966-2-4, SMPTE RP177
Характеристики трансфера : BT.709-5, BT.1361
Коэффициенты матрицы : BT.709-5, BT.1361, IEC 61966-2-4 709, SMPTE RP177
Аудио
Идентификатор : 415 (0x19F)
Идентификатор меню : 1 (0x1)
Формат : AC-3
Формат/Информация : Audio Coding 3
Расширение режима : CM (complete main)
Идентификатор кодека : 6
Продолжительность : 2 ч. 22 м.
Вид битрейта : Постоянный
Битрейт : 384 Кбит/сек
Каналы : 2 канала
Расположение каналов : Front: L R
Частота : 48,0 КГц
Битовая глубина : 16 бит
Метод сжатия : С потерями
Размер потока : 392 Мбайт (3%)
Язык : Russian
Скриншоты:

[Цитировать]



Показать сообщения:    

Текущее время: 11-Дек 03:23

Часовой пояс: UTC + 3


Вы не можете начинать темы
Вы не можете отвечать на сообщения
Вы не можете редактировать свои сообщения
Вы не можете удалять свои сообщения
Вы не можете голосовать в опросах
Вы не можете прикреплять файлы к сообщениям
Вы не можете скачивать файлы

!ВНИМАНИЕ!
Сайт не предоставляет электронные версии произведений, а занимается лишь коллекционированием и каталогизацией ссылок, присылаемых и публикуемых на форуме нашими читателями. Если вы являетесь правообладателем какого-либо представленного материала и не желаете, чтобы ссылка на него находилась в нашем каталоге, свяжитесь с нами, и мы незамедлительно удалим ее. Файлы для обмена на трекере предоставлены пользователями сайта, и администрация не несет ответственности за их содержание. Просьба не заливать файлы, защищенные авторскими правами, а также файлы нелегального содержания!