[ Сегодня идет свободное скачивание без начисления Download ]


Статистика раздачи
Нет
 
   
 
Top  
 
 
-Стинг. Рождественский концерт в Кафедральном соборе Дарема / Sting - A Winter's Night... Live From Durham Cathedral (2009) HDTV 1080i- Русское название: Стинг. Рождественский концерт в Кафедральном соборе Дарема
Оригинальное название: Sting - A Winter's Night... Live From Durham Cathedral
Год выпуска: 2009
Жанр: Folk/Classical
Продолжительность: 01:30:46
Треклсит:
01. Gabriel's Message
02. Soul Cake
03. There Is No Rose Of Such Virtue
04. The Snow It Melts The Soonest
05. Christmas At Sea
06. Lo How A Rose E'er Blooming
07. Cold Song
08. The Burning Babe
09. Now Winter Comes Slowly
10. The Hounds Of Winter
11. Balulalow
12. Cherry Tree Carol
13. Lullaby For An Anxious Child
14. The Hurdy-Gurdy Man

Описание фильма:
Концерт в Даремском кафедральном соборе Христа и Святой Девы Марии.
Стинг:
"Мне очень приятно находиться в этом месте – в Кафедеральном соборе Дарема, и особенно приятно, что сегодня я выступаю на своей Родине. У меня редко появляется возможность посетить места, где я вырос, и сегодняшний концерт для меня – своеобразное возвращение домой. Символично, что это происходит зимой, потому что это самое загадочное время года. Время, когда мы ощущаем историческую связь с поколениями, жившими до нас; с семьями, из которых мы вышли; мы вспоминаем о наших корнях, обращаемся к зову сердца, который ведёт нас домой – к теплу домашнего очага, домой, где мы чувствуем себя в безопасности. И это чувство, питаемое нашей памятью, выросшее из детских впечатлений, неизменно ассоциируется именно с горящим камином, с детской колыбелью, с семьей, с церковными торжествами. Поэтому мне доставляет особую радость петь сегодня вечером в этом прекрасном Соборе в честь этого загадочного времени года, которое дарит нам снег, мороз и длинные тёмные вечера. Но в тоже время зима связана с волшебными историями о рождественских чудесах, прекрасных ангелах, загадочных эльфах, настоящих феях и весёлых привидениях в печной трубе.
Все песни, которые прозвучат сегодня, связаны с зимой. Они были написаны в разные годы, и некоторые из них по возрасту могут сравниться с этим Собором. Я исполню и классическую музыку, и фольклорные песни, и рождественские гимны, и немного песен собственного сочинения. Для меня зима – это время, которое будоражит воображение. Это время, когда мы переосмысливаем нашу связь с прошлым, когда мы открываемся духам наших предков, и мы должны успеть воздать им должное, пока не растаял снег и колесо времени не начало свой очередной круг".

Доп. информация:
Присутствует перевод проф.одноголосный , на диaлоги Cтинга между песнями.
Видеокодек: MPEG-4 AVC/H.264
Битрейт видео: ~11,900 kbps
Размер кадра: 1920x1080
Качество видео: HDTV 1080i
Аудиокодек: AC3
Битрейт аудио: 192 kbps

MediaInfo

Общее
Идентификатор                            : 0 (0x0)
Полное имя                               : D:\tltorrent загрузки\Стинг. Концерт - Зимняя ночь_HD Life_1080i.m2ts
Формат                                   : BDAV
Формат/Информация                        : Blu-ray Video
Размер файла                             : 8,00 Гбайт
Продолжительность                        : 1 ч. 30 м.
Режим общего битрейта                    : Переменный
Общий поток                              : 12,6 Мбит/сек
Максимальный общий битрейт               : 24,0 Мбит/сек
Видео
Идентификатор                            : 4113 (0x1011)
Идентификатор меню                       : 1 (0x1)
Формат                                   : AVC
Формат/Информация                        : Advanced Video Codec
Профиль формата                          : [url=mailto:High@L4.0]High@L4.0[/url]
Параметр CABAC формата                   : Нет
Параметр ReFrames формата                : 2 кадра
Параметр GOP формата                     : M=3, N=15
Идентификатор кодека                     : 27
Продолжительность                        : 1 ч. 30 м.
Вид битрейта                             : Переменный
Битрейт                                  : 11,9 Мбит/сек
Максимальный битрейт                     : 20,0 Мбит/сек
Ширина                                   : 1920 пикселей
Высота                                   : 1080 пикселей
Соотношение сторон                       : 16:9
Частота кадров                           : 25,000 кадров/сек
Стандарт вещания                         : PAL
Цветовое пространство                    : YUV
Субдискретизация насыщенности            : 4:2:0
Битовая глубина                          : 8 бит
Тип развёртки                            : MBAFF
Бит/(Пиксели*Кадры)                      : 0.230
Размер потока                            : 7,56 Гбайт (94%)
Основные цвета                           : BT.709-5, BT.1361, IEC 61966-2-4, SMPTE RP177
Характеристики трансфера                 : BT.709-5, BT.1361
Коэффициенты матрицы                     : BT.709-5, BT.1361, IEC 61966-2-4 709, SMPTE RP177
Аудио
Идентификатор                            : 4352 (0x1100)
Идентификатор меню                       : 1 (0x1)
Формат                                   : AC-3
Формат/Информация                        : Audio Coding 3
Расширение режима                        : CM (complete main)
Идентификатор кодека                     : 129
Продолжительность                        : 1 ч. 30 м.
Вид битрейта                             : Постоянный
Битрейт                                  : 192 Кбит/сек
Каналы                                   : 2 канала
Расположение каналов                     : Front: L R
Частота                                  : 48,0 КГц
Битовая глубина                          : 16 бит
Метод сжатия                             : С потерями
Размер потока                            : 125 Мбайт (2%)
Скриншоты:

[Цитировать]



Показать сообщения:    

Текущее время: 09-Дек 12:34

Часовой пояс: UTC + 3


Вы не можете начинать темы
Вы не можете отвечать на сообщения
Вы не можете редактировать свои сообщения
Вы не можете удалять свои сообщения
Вы не можете голосовать в опросах
Вы не можете прикреплять файлы к сообщениям
Вы не можете скачивать файлы

!ВНИМАНИЕ!
Сайт не предоставляет электронные версии произведений, а занимается лишь коллекционированием и каталогизацией ссылок, присылаемых и публикуемых на форуме нашими читателями. Если вы являетесь правообладателем какого-либо представленного материала и не желаете, чтобы ссылка на него находилась в нашем каталоге, свяжитесь с нами, и мы незамедлительно удалим ее. Файлы для обмена на трекере предоставлены пользователями сайта, и администрация не несет ответственности за их содержание. Просьба не заливать файлы, защищенные авторскими правами, а также файлы нелегального содержания!