[ Сегодня идет свободное скачивание без начисления Download ]


Статистика раздачи
Нет
 
   
 
Top  
 
 
- Легенды Ретро FM (2013.01.02) HDTV [1080i] - Режиссер / Телекомпания: Первый канал
Русское название: Легенды Ретро FM
Год выпуска: 2013
Жанр: Телепередача
Описание:
Восьмой международный фестиваль "Легенды Ретро FM" в минувшем декабре с аншлагом прошел в "Олимпийском" и собрал популярнейших суперзвёзд 70-х, 80-х и 90-х.
Ретро FM вновь удалось удивить зрителей новой афишей: почти все артисты выступили на "Легендах" впервые – это Al Bano, C.С. Catch, Анжелика Варум, Baccara, Лев Лещенко, Corona, Юрий Лоза и Afric Simone. Свои золотые хиты спели группы Secret Service и Мираж, а почетным гостем фестиваля стал автор десятков всенародных шлягеров - Юрий Антонов. Но главный сюрприз восьмых по счету "Легенд Ретро FM" – это возвращение к российской аудитории Джанни Моранди. В нашей стране он не выступал больше 20 лет, после своих звездных гастролей в СССР в 1984 году. Знаменитый итальянец не только подарил гостям фантастическое живое выступление, но и передал всем большой привет от своего друга Адриано Челентано, исполнив его знаменитую песню "Azzuro" вместе с Al Bano.
Специально для "Легенд" были созданы масштабные декорации, а само шоу включало яркие танцевальные номера, воздушную акробатику и сложнейшие пиротехнические композиции. 2 января премьерную телеверсию фестиваля в формате HD смогут увидеть миллионы зрителей Первого канала!
Суперзвёзды и суперхиты, фантастическая постановка, невероятные спецэффекты и новогодняя атмосфера – на "Легендах Ретро FM" будет всё, что нужно для настоящего праздника!
Ведущие: Дмитрий Харатьян, Татьяна Веденеева
Продолжительность: ~ 01:57:10
Видеокодек: MPEG-TS (AVC)
Битрейт видео: ~12,4 Мбит/сек
Размер кадра: 1920 x 1080
Качество видео: HDTV
Аудиокодек: AC-3, 2ch.
Битрейт аудио: 384 kb/s

Исполнители

01. Ю.Антонов
02. Baccara
03. А. Варум
04. Al Bano
05. Мираж
06. D.Morandi
07. Л.Лещенко
08. C.C.Catch
09. Ю.Лоза
10. Secret Service
11. А.Айвазов
12. Corona
13. К.Кельми
14. A.Simone

MediaInfo

Формат : MPEG-TS
Размер файла : 11,0 Гбайт
Продолжительность : 1 ч. 57 м.
Общий поток : 13,5 Мбит/сек
Видео
Идентификатор : 305 (0x131)
Идентификатор меню : 1 (0x1)
Формат : AVC
Формат/Информация : Advanced Video Codec
Профиль формата : High@L4.0
Параметр CABAC формата : Да
Параметр ReFrames формата : 3 кадра
Идентификатор кодека : 27
Продолжительность : 1 ч. 57 м.
Битрейт : 12,4 Мбит/сек
Ширина : 1920 пикселей
Высота : 1080 пикселей
Соотношение сторон : 16:9
Частота кадров : 25,000 кадров/сек
Стандарт вещания : Component
Цветовое пространство : YUV
Субдискретизация насыщенности : 4:2:0
Битовая глубина : 8 бит
Тип развёртки : Чересстрочная
Порядок развёртки : Верхнее поле первое
Бит/(Пиксели*Кадры) : 0.240
Размер потока : 10,2 Гбайт (92%)
Основные цвета : BT.709-5, BT.1361, IEC 61966-2-4, SMPTE RP177
Характеристики трансфера : BT.709-5, BT.1361
Коэффициенты матрицы : BT.709-5, BT.1361, IEC 61966-2-4 709, SMPTE RP177
Аудио
Идентификатор : 415 (0x19F)
Идентификатор меню : 1 (0x1)
Формат : AC-3
Формат/Информация : Audio Coding 3
Расширение режима : CM (complete main)
Идентификатор кодека : 6
Продолжительность : 1 ч. 57 м.
Вид битрейта : Постоянный
Битрейт : 384 Кбит/сек
Каналы : 2 канала
Расположение каналов : Front: L R
Частота : 48,0 КГц
Битовая глубина : 16 бит
Метод сжатия : С потерями
Размер потока : 322 Мбайт (3%)
Язык : Russian
Скриншоты:

[Цитировать]



Показать сообщения:    

Текущее время: 09-Дек 08:48

Часовой пояс: UTC + 3


Вы не можете начинать темы
Вы не можете отвечать на сообщения
Вы не можете редактировать свои сообщения
Вы не можете удалять свои сообщения
Вы не можете голосовать в опросах
Вы не можете прикреплять файлы к сообщениям
Вы не можете скачивать файлы

!ВНИМАНИЕ!
Сайт не предоставляет электронные версии произведений, а занимается лишь коллекционированием и каталогизацией ссылок, присылаемых и публикуемых на форуме нашими читателями. Если вы являетесь правообладателем какого-либо представленного материала и не желаете, чтобы ссылка на него находилась в нашем каталоге, свяжитесь с нами, и мы незамедлительно удалим ее. Файлы для обмена на трекере предоставлены пользователями сайта, и администрация не несет ответственности за их содержание. Просьба не заливать файлы, защищенные авторскими правами, а также файлы нелегального содержания!