[ Сегодня идет свободное скачивание без начисления Download ]


Статистика раздачи
Нет
 
   
 
Top  
 
 
- Дискотека 80-х / Авторадио (2013.01.01) HDTV [1080i] - Режиссер / Телекомпания: Первый канал
Русское название: Дискотека 80-х / Авторадио
Год выпуска: 2011-2012
Жанр: Концерт
Описание:
Фестиваль "Дискотека 80-х" прошел в одиннадцатый раз под лозунгом "Rock&Dance" и преподнесет зрителям еще больше сюрпризов - суперзвездный состав артистов, новые имена, а главное - неординарное захватывающее шоу.
Никогда ранее на фестивале "Авторадио" так широко не были представлены рок-музыканты. Каждое имя - эпоха, легенда, символ 80-х. К тому же, все эти люди не просто "в строю", но и продолжают радовать публику новыми работами.
В 2012 года Gorky Park - одна из самых знаменитых рок-групп времен перестройки - отмечает свое 25-летие, и у зрителей "Дискотеки 80-х" есть шанс увидеть на сцене фестиваля легендарную команду, которая исполнит свои самые яркие хиты. Не менее ожидаемо выступление Гарика Сукачева, одного из наиболее ярких фронтменов русского рока. Без песен "Бригады С", которые он исполнит вместе с Сергеем Галаниным, историю поколения 80-х представить невозможно. Выйдет на сцену и Константин Никольский, чьи баллады прочно вошли в золотой фонд отечественной музыки.
И какая же "Дискотека 80-х" без буйства красок, феерии света и звука, зажигательных танцевальных ритмов DISCO, которые и создают неповторимую атмосферу фестиваля? В этом одиннадцатая "Дискотека 80-х" не станет исключением!
Приглашение "Авторадио" получили такие мировые звезды, как Boney M, Sabrina, Pupo, C.C. Catch, Zodiac… Впервые на фестивале выступят участницы знаменитой немецкой группы Arabesque, чья композиция "Midnight Dancer" покорила в 80-е миллионы сердец во всем мире, а также немецкая поп-группа Silent Circle, синглы которой "Touch In The Night" и "Stop The Rain In The Night" звучали на всех лучших европейских и отечественных танцполах.
Продолжительность: ~ 04:33:03
Видеокодек: MPEG-TS (AVC)
Битрейт видео: ~12,2 Мбит/сек
Размер кадра: 1920 x 1080
Качество видео: HDTV
Аудиокодек: AC-3, 2ch.
Битрейт аудио: 384 kb/s

Треклист

2012:
01.Boney M - Rasputin
02.Boney M - Bahama Mama
03.Boney M - Sunny
04.Юрий Шатунов - Белые Розы
05.Юрий Шатунов - Розовый Вечер
06.Юрий Шатунов - Седая Ночь
07.Black - Wonderful Life
08.Chris Norman - I’ll Meet You at Midnight
09.Chris Norman - Living Next Door to Alice
10.Chris Norman & C.C.Catch - Stumblin’ in
11.C.C.Catch - Heaven and Hell
12.C.C.Catch - Megamix
13.Zodiac - МИКС
14.Константин Никольский - Музыкант
15.Константин Никольский - Один взгляд назад
16.Bad Boys Blue - Pretty young girl
17.Bad Boys Blue - You‘re a woman
18.Gorky Park - Bang
19.Gorky Park - Moscow Calling
20.Sabrina - All of Me
21.Sabrina - Boys
22.Matia Bazar - Vacanze Romane
23.Вячеслав Бутусов - Шар цвета хаки
24.Вячеслав Бутусов - Звезда по имени Солнце
25.Вячеслав Бутусов - Прощальное письмо
26.Ricchi e Poveri - Sara Perche Ti Amo
27.Ricchi e Poveri - Voulez Vous Dancer
28.Ricchi e Poveri - Mama Maria
29.Silent Circle - Touch in the night
30.Silent Circle - Stop the rain in the night
31.Arabesque - In For A Penny, In For A Pound
32.Arabesque - Midnight Dancer
33.Гарик Сукачев - Бродяга
34.Гарик Сукачев - Дорожная
35.Гарик Сукачев - Моя Бабушка Курит Трубку
2011:
Eddy Huntington - U.S.S.R
Максим Леонидов - Я люблю буги-вуги
Максим Леонидов - Привет
Joy - Valerie
Joy - Touch By Touch
Игорь Корнелюк - Дожди
Al Bano-Carrisi - Ci Sara
Al Bano-Carrisi - Felicita
Мираж - Наступает ночь
Мираж - Музыка нас связала
Neoton Familia - Marathon
Вячеслав Добрынин - Попурри
Belinda Carlisle - La Luna
Belinda Carlisle - Circle In The Sand
Riccardo Fogli - Malinconia
Riccardo Fogli - Storie Di Tutti i Giorni
Сергей Скачков - Трава у дома
Маркин-Минаев - Микс
Mr. Zivago - Little Russian
Валерий Сюткин - Вася
Валерий Сюткин - Московский бит
F.R. David - Pick Up The Phone
F.R. David - Words
Веселые ребята - Попурри
Fancy - Slice Me Nice
Fancy - Flames of Love
Пресняков мл.-Иванов - Я буду помнить
Paul Young - Don't Dream It's Over
Paul Young - Everytime You Go Away
Dschinghis Khan - Dschinghis Khan
Dschinghis Khan - Moskau

MediaInfo

Формат : MPEG-TS
Размер файла : 25,2 Гбайт
Продолжительность : 4 ч. 33 м.
Общий поток : 13,2 Мбит/сек
Видео
Идентификатор : 305 (0x131)
Идентификатор меню : 1 (0x1)
Формат : AVC
Формат/Информация : Advanced Video Codec
Профиль формата : High@L4.0
Параметр CABAC формата : Да
Параметр ReFrames формата : 3 кадра
Идентификатор кодека : 27
Продолжительность : 4 ч. 33 м.
Битрейт : 12,2 Мбит/сек
Ширина : 1920 пикселей
Высота : 1080 пикселей
Соотношение сторон : 16:9
Частота кадров : 25,000 кадров/сек
Стандарт вещания : Component
Цветовое пространство : YUV
Субдискретизация насыщенности : 4:2:0
Битовая глубина : 8 бит
Тип развёртки : Чересстрочная
Порядок развёртки : Верхнее поле первое
Бит/(Пиксели*Кадры) : 0.234
Размер потока : 23,2 Гбайт (92%)
Основные цвета : BT.709-5, BT.1361, IEC 61966-2-4, SMPTE RP177
Характеристики трансфера : BT.709-5, BT.1361
Коэффициенты матрицы : BT.709-5, BT.1361, IEC 61966-2-4 709, SMPTE RP177
Аудио
Идентификатор : 415 (0x19F)
Идентификатор меню : 1 (0x1)
Формат : AC-3
Формат/Информация : Audio Coding 3
Расширение режима : CM (complete main)
Идентификатор кодека : 6
Продолжительность : 4 ч. 33 м.
Вид битрейта : Постоянный
Битрейт : 384 Кбит/сек
Каналы : 2 канала
Расположение каналов : Front: L R
Частота : 48,0 КГц
Битовая глубина : 16 бит
Метод сжатия : С потерями
Размер потока : 750 Мбайт (3%)
Язык : Russian
Скриншоты:

[Цитировать]



Показать сообщения:    

Текущее время: 08-Дек 19:09

Часовой пояс: UTC + 3


Вы не можете начинать темы
Вы не можете отвечать на сообщения
Вы не можете редактировать свои сообщения
Вы не можете удалять свои сообщения
Вы не можете голосовать в опросах
Вы не можете прикреплять файлы к сообщениям
Вы не можете скачивать файлы

!ВНИМАНИЕ!
Сайт не предоставляет электронные версии произведений, а занимается лишь коллекционированием и каталогизацией ссылок, присылаемых и публикуемых на форуме нашими читателями. Если вы являетесь правообладателем какого-либо представленного материала и не желаете, чтобы ссылка на него находилась в нашем каталоге, свяжитесь с нами, и мы незамедлительно удалим ее. Файлы для обмена на трекере предоставлены пользователями сайта, и администрация не несет ответственности за их содержание. Просьба не заливать файлы, защищенные авторскими правами, а также файлы нелегального содержания!