[ Сегодня идет свободное скачивание без начисления Download ]


Статистика раздачи
Нет
 
   
 
Top  
 
 
-20 Лучших песен 2012 года (2011) [1080i] HDTV- Оригинальное название: Красная звезда. 20 лучших песен 2012 года
Жанр: Рор
Продолжительность: 01:58:15
Год выпуска: 2013
Выпущено: Россия, Первый канал HD
Ведущие: Яна Чурикова, Юрий Аксюта-Описание:
"20 лучших песен 2012 года"- ежегодная музыкальная премия по итогам Сводного национального чарта. Из тысяч музыкальных композиций выбрать всего двадцать — дело непростое. При составлении национального сводного чарта "Красная звезда" учитывается количество скачиваний песен в Интернете, частота появлений исполнителя на телевидении, ротация на радио и, конечно, народное голосование...
-Треклист:
01. DJ Smash и Винтаж - «Москва»
02. Лоя - «Розы темно-алые»
03. Потап и Настя - «Если вдруг»
04. Градусы - «Голая»
05. Юлия Савичева - «Юлия»
06. Джиган - «Нас больше нет»
07. Кристина Орбакайте и Дискотека Авария - «Прогноз погоды»
08. Серебро - «Мама Люба»
09. Дан Балан - «Лишь до утра»
10. Эльвира Т - «Все решено»
11. Григорий Лепс - «Самый лучший день»
12. Ева Польна - «Я тебя тоже нет»
13. Нюша - «Выше»
14. 5sta Family - «Вместе мы»
15. Доминик Джокер - «Если ты со мной»
16. IOWA - «Мама»
17. Иван Дорн - «Стыцамэн»
18. Ёлка - «Около тебя»
19. Дима Билан - «Так не бывает»
20. Полина Гагарина - «Спектакль окончен»
-Качество видео: HDTV (1080i)
Видеокодек: AVC
Битрейт видео: ~10,4 mbps avg, 25.000 fps
Размер кадра: 1920x1080, (16:9), 0.201 bit/pixel
Аудиокодек: AC3
Аудио: 48 kHz, AC3, 2 ch, 384 kbps

MediaInfo:

Format : MPEG-TS
File size : 9.37 GiB
Duration : 1h 58mn
Overall bit rate : 11.3 Mbps
Video #305
ID : 305 (0x131)
Menu ID : 1 (0x1)
Format : AVC
Format/Info : Advanced Video Codec
Format profile : High@L4.0
Format settings, CABAC : Yes
Format settings, ReFrames : 3 frames
Codec ID : 27
Duration : 1h 58mn
Bit rate : 10.4 Mbps
Width : 1 920 pixels
Height : 1 080 pixels
Display aspect ratio : 16:9
Frame rate : 25.000 fps
Standard : Component
Color space : YUV
Chroma subsampling : 4:2:0
Bit depth : 8 bits
Scan type : Interlaced
Scan order : Top Field First
Bits/(Pixel*Frame) : 0.201
Stream size : 8.58 GiB (92%)
Color primaries : BT.709-5, BT.1361, IEC 61966-2-4, SMPTE RP177
Transfer characteristics : BT.709-5, BT.1361
Matrix coefficients : BT.709-5, BT.1361, IEC 61966-2-4 709, SMPTE RP177
Audio #415
ID : 415 (0x19F)
Menu ID : 1 (0x1)
Format : AC-3
Format/Info : Audio Coding 3
Mode extension : CM (complete main)
Codec ID : 6
Duration : 1h 58mn
Bit rate mode : Constant
Bit rate : 384 Kbps
Channel(s) : 2 channels
Channel positions : Front: L R
Sampling rate : 48.0 KHz
Bit depth : 16 bits
Compression mode : Lossy
Stream size : 325 MiB (3%)
Language : Russian
Скриншоты:

[Цитировать]



Показать сообщения:    

Текущее время: 09-Дек 03:08

Часовой пояс: UTC + 3


Вы не можете начинать темы
Вы не можете отвечать на сообщения
Вы не можете редактировать свои сообщения
Вы не можете удалять свои сообщения
Вы не можете голосовать в опросах
Вы не можете прикреплять файлы к сообщениям
Вы не можете скачивать файлы

!ВНИМАНИЕ!
Сайт не предоставляет электронные версии произведений, а занимается лишь коллекционированием и каталогизацией ссылок, присылаемых и публикуемых на форуме нашими читателями. Если вы являетесь правообладателем какого-либо представленного материала и не желаете, чтобы ссылка на него находилась в нашем каталоге, свяжитесь с нами, и мы незамедлительно удалим ее. Файлы для обмена на трекере предоставлены пользователями сайта, и администрация не несет ответственности за их содержание. Просьба не заливать файлы, защищенные авторскими правами, а также файлы нелегального содержания!