[ Сегодня идет свободное скачивание без начисления Download ]


Статистика раздачи
Нет
 
   
 
Top  
 
 
-The Vienna Philharmonic New Year's Concert 2013 (2013) HDTV- Оригинальное название: The Vienna Philharmonic New Year's Concert 2013
Год выпуска: 2013
Жанр: классическая музыка
Описание фильма:
В прямой трансляции из Золотого зала Общества друзей музыки в Вене, знаменитого Musikverein, будет звучать музыка семейства Штраусов.
Ежегодный Новогодний концерт Венского филармонического оркестра по праву считается одним из крупнейших мировых музыкальных событий года. Это мероприятие, открывающее европейский музыкальный календарь, вызывает огромный резонанс во всем мире. И это не случайно. К концерту готовятся долго: знаменитый Золотой зал Венского общества друзей музыки (Musikverein), куда съезжается аристократическая публика со всего мира, украшают живыми цветами лучшие флористы Европы, тщательно подбирается репертуар, в котором по традиции неизменно звучат произведения знаменитых венских композиторов из семьи Штраусов – вальсы, мазурки, польки, галопы, марши. И, конечно, три обязательных "биса", один из которых публика ждет с особым нетерпением, ведь в исполнении "Марша Радецкого" Иоганна Штрауса-отца участвуют не только музыканты, находящиеся на сцене, но и сами зрители.
Дирижировать Венским филармоническим оркестром в этот день – огромная честь. В 2013 году эта почетная обязанность уже во второй раз поручена одному из ведущих дирижеров современности Францу Вельзеру Мёсту. Концерт имеет многолетнюю историю: первое выступление состоялось 31 декабря в 1939 году, однако свой статус он получил лишь в 1946 году. Это мероприятие всегда вызывало огромный резонанс во всем мире. Концерт транслируют более 70 телеканалов и 300 радиостанций разных стран
Режиссер: Franz Welser-M?st
Актеры: Дирежер Franz Welser-M?st, Оркестр Венской филармонии
Продолжительность: 02:32:49
Перевод: Отсутствует
Дата мировой премьеры: 1.01.2013
Видеокодек: MPEG-4 AVC/H.264
Битрейт видео: ~12.9 Mbps
Размер кадра: 1280х720
Качество видео: HDTV
Аудиокодек: AC3
Битрейт аудио: 448 Kbps

Mediainfo

General
ID : 1 (0x1)
Complete name : Z:\Vienna Philharmonic New Year's Concert.2013\Vienna Philharmonic New Year's Concert.2013.1080i.HDTV.DD5.0.H264-playTV\Vienna Philharmonic New Year's Concert.2013.1080i.HDTV.DD5.0.H264-playTV.ts
Format : MPEG-TS
File size : 15.0 GiB
Duration : 2h 32mn
Overall bit rate : 14.0 Mbps
Video
ID : 6110 (0x17DE)
Menu ID : 1 (0x1)
Format : AVC
Format/Info : Advanced Video Codec
Format profile : High@L4.0
Format settings, CABAC : Yes
Format settings, ReFrames : 6 frames
Format settings, GOP : M=4, N=33
Codec ID : 27
Duration : 2h 32mn
Bit rate : 12.9 Mbps
Width : 1 280 pixels
Height : 720 pixels
Display aspect ratio : 16:9
Frame rate : 50.000 fps
Color space : YUV
Chroma subsampling : 4:2:0
Bit depth : 8 bits
Scan type : Progressive
Bits/(Pixel*Frame) : 0.279
Stream size : 13.7 GiB (92%)
Color primaries : BT.709-5, BT.1361, IEC 61966-2-4, SMPTE RP177
Transfer characteristics : BT.709-5, BT.1361
Matrix coefficients : BT.709-5, BT.1361, IEC 61966-2-4 709, SMPTE RP177
Audio
ID : 6122 (0x17EA)
Menu ID : 1 (0x1)
Format : AC-3
Format/Info : Audio Coding 3
Mode extension : CM (complete main)
Format settings, Endianness : Big
Codec ID : 6
Duration : 2h 32mn
Bit rate mode : Constant
Bit rate : 448 Kbps
Channel(s) : 5 channels
Channel positions : Front: L C R, Side: L R
Sampling rate : 48.0 KHz
Bit depth : 16 bits
Compression mode : Lossy
Stream size : 490 MiB (3%)
Language : German
Text
ID : 6130 (0x17F2)-100
Menu ID : 1 (0x1)
Format : Teletext
Language : German

Программа концерта

Program
Josef Strauss: The Soubrette, Fast Polka, op. 109
Johann Strauss, Jr.: Kiss Waltz, op. 400
Josef Strauss: Theater Quadrille, op. 213
Johann Strauss, Jr.: From the Mountains, Waltz, op. 292
Franz von Supp?: Overture to the Operetta "Light Cavalry"
• Intermission
Josef Strauss: Music of the Spheres, Waltz, op. 235
Josef Strauss: The Spinstress, Polka fran?aise, op. 192
Richard Wagner: Prelude to Act III of the Romantic Opera "Lohengrin", WWV 75
Joseph Hellmesberger, Jr.: In Confidence, Polka mazur, op. 15
Josef Strauss: Hesperus’ Paths, Waltz, op. 279 Josef Strauss: The Runners, Fast Polka, op. 237
Joseph Lanner: Styrian Dances, op. 165
Johann Strauss, Jr.: Melodies Quadrille, op.112
Giuseppe Verdi: Prestissimo from the Ballet Music in Act III of the Opera "Don Carlo"
Johann Strauss, Jr.: Where the Lemon Trees Bloom, Waltz, op. 364
Johann Strauss, Sr.: Memories of Ernst or The Carnival of Venice, Fantasy, op. 126
Скриншоты:

[Цитировать]



Показать сообщения:    

Текущее время: 07-Дек 13:37

Часовой пояс: UTC + 3


Вы не можете начинать темы
Вы не можете отвечать на сообщения
Вы не можете редактировать свои сообщения
Вы не можете удалять свои сообщения
Вы не можете голосовать в опросах
Вы не можете прикреплять файлы к сообщениям
Вы не можете скачивать файлы

!ВНИМАНИЕ!
Сайт не предоставляет электронные версии произведений, а занимается лишь коллекционированием и каталогизацией ссылок, присылаемых и публикуемых на форуме нашими читателями. Если вы являетесь правообладателем какого-либо представленного материала и не желаете, чтобы ссылка на него находилась в нашем каталоге, свяжитесь с нами, и мы незамедлительно удалим ее. Файлы для обмена на трекере предоставлены пользователями сайта, и администрация не несет ответственности за их содержание. Просьба не заливать файлы, защищенные авторскими правами, а также файлы нелегального содержания!