[ Сегодня идет свободное скачивание без начисления Download ]


Статистика раздачи
Скачал: [ 1 ]
 
   
 
Top  
 
 
Голодные игры: Сойка-пересмешница. Часть II / The Hunger Games: Mockingjay - Part 2
Год выпуска: 2015
Производство: США, Германия / Lionsgate, Color Force, Studio Babelsberg
Жанр: Фантастика, триллер, военный
Режиссер: Френсис Лоуренс
Продюсеры: Нина Джейкобсон, Джон Килик, Джон Бернард
Актеры: Дженнифер Лоуренс, Джош Хатчерсон, Лиам Хемсворт, Вуди Харрельсон, Дональд Сазерленд, Филип Сеймур Хоффман, Джулианна Мур, Уиллоу Шилдс, Сэм Клафлин, Элизабет Бэнкс
Описание фильма:
Китнисс Эвердин и своенравный Пит Мелларк пытаются выиграть гражданскую войну между самодержавным Капитолием и истерзанными войной районами Панема…
Перевод: Дублированный [iTunes]
Субтитры: Русские, английские-Дата мировой премьеры: 4 ноября 2015
Дата российской премьеры: 19 ноября 2015, «WDSSPR»
-Продолжительность: 02:11:20
Качество видео: DVD5 [BD -> DVD]
Видео: MPEG-2, 720x576@1024x576 (PAL 16:9), ~3700 Кбит/сек
Аудио 1: AC3 5.1, 384 Кбит/сек [Русский - дублированный]
Аудио 2: AC3 5.1, 384 Кбит/сек [Английский - оригинал]

DVDInfo:

Title: The Hunger Games. Mockingjay - Part 2 (2015) DVD5 [BD-DVD]
Size: 4.36 Gb ( 4 569 840,00 KBytes ) - DVD-5
Enabled regions: 1, 2, 3, 4, 5, 6, 7, 8
VTS_01 :
Play Length: 02:11:20
Video: PAL 16:9 (720x576) VBR, Auto Letterboxed
Audio:
Russian (Dolby AC3, 6 ch)
English (Dolby AC3, 6 ch)
Subtitles:
Russian
English
* Menus Information *
VIDEO_TS Menu
Video:
PAL 4:3 (720x576) VBR
English Language Unit :
Title Menu
VTS_01 Menu
Video:
PAL 16:9 (720x576) VBR
Auto Letterboxed
Audio:
Not specified (Dolby AC3, 2 ch)
English Language Unit :
Root Menu

MediaInfo:

Общее
Полное имя : G:ВидеоThe Hunger Games. Mockingjay - Part 2 (2015) DVD5 [BD-DVD]VIDEO_TSVTS_01_2.VOB
Формат : MPEG-PS
Размер файла : 1024 Мбайт
Продолжительность : 31 м.
Режим общего битрейта : Переменный
Общий поток : 4555 Кбит/сек
Видео
Идентификатор : 224 (0xE0)
Формат : MPEG Video
Версия формата : Version 2
Профиль формата : Main@Main
Параметр BVOP формата : Да
Параметр матрицы формата : Выборочная
Параметр GOP формата : M=3, N=15
Продолжительность : 31 м.
Вид битрейта : Переменный
Битрейт : 3697 Кбит/сек
Максимальный битрейт : 8700 Кбит/сек
Ширина : 720 пикселей
Высота : 576 пикселей
Соотношение сторон : 16:9
Частота кадров : 25,000 кадров/сек
Стандарт вещания : PAL
Цветовое пространство : YUV
Субдискретизация насыщенности : 4:2:0
Битовая глубина : 8 бит
Тип развёртки : Прогрессивная
Метод сжатия : С потерями
Бит/(Пиксели*Кадры) : 0.357
Временной код первого кадра : 00:34:05:17
Оригинал временного кода : Group of pictures header
Размер потока : 831 Мбайт (81%)
Аудио #1
Идентификатор : 189 (0xBD)-128 (0x80)
Формат : AC-3
Формат/Информация : Audio Coding 3
Расширение режима : CM (complete main)
Параметр Endianness формата : Big
Режим смешивания : DVD-Video
Продолжительность : 31 м.
Вид битрейта : Постоянный
Битрейт : 384 Кбит/сек
Каналы : 6 каналов
Расположение каналов : Front: L C R, Side: L R, LFE
Частота : 48,0 КГц
Частота кадров : 31,250 кадров/сек (1536 spf)
Метод сжатия : С потерями
Задержка видео : -560 мс.
Размер потока : 86,3 Мбайт (8%)
Аудио #2
Идентификатор : 189 (0xBD)-129 (0x81)
Формат : AC-3
Формат/Информация : Audio Coding 3
Расширение режима : CM (complete main)
Параметр Endianness формата : Big
Режим смешивания : DVD-Video
Продолжительность : 31 м.
Вид битрейта : Постоянный
Битрейт : 384 Кбит/сек
Каналы : 6 каналов
Расположение каналов : Front: L C R, Side: L R, LFE
Частота : 48,0 КГц
Частота кадров : 31,250 кадров/сек (1536 spf)
Метод сжатия : С потерями
Задержка видео : -560 мс.
Размер потока : 86,3 Мбайт (8%)
Текст #1
Идентификатор : 189 (0xBD)-32 (0x20)
Формат : RLE
Формат/Информация : Run-length encoding
Режим смешивания : DVD-Video
Продолжительность : 31 м.
Задержка видео : 1 с. 520 мс.
Текст #2
Идентификатор : 189 (0xBD)-33 (0x21)
Формат : RLE
Формат/Информация : Run-length encoding
Режим смешивания : DVD-Video
Продолжительность : 31 м.
Задержка видео : 1 с. 560 мс.
Меню
Продолжительность : 31 м.

Доп. информация:

Видео, английская и русская дорожка взяты с BDRemux 1080p. Субтитры и главы взяты с BDRip. Видео обрабатывалось в Rhozet Carbon Coder за 2 прохода. Звуковые дорожки обрабатывались в Sony Vegas. Меню самодельное, на русском языке сделанное в DVD-lab PRO 2. Меню выбора эпизода анимированное. С помощью программы Subtitle Edit перегнал субтитры из 23,976 fps до 25. Главы перегнал из 23,976 fps до 25 с помощью ChapterGen.

Скриншоты меню:

Скриншоты

[Цитировать]

Топик был перенесен из форума Фантастика в форум Зарубежное кино (DVD)
Scorpio



Показать сообщения:    

Текущее время: 11-Дек 11:08

Часовой пояс: UTC + 3


Вы не можете начинать темы
Вы не можете отвечать на сообщения
Вы не можете редактировать свои сообщения
Вы не можете удалять свои сообщения
Вы не можете голосовать в опросах
Вы не можете прикреплять файлы к сообщениям
Вы не можете скачивать файлы

!ВНИМАНИЕ!
Сайт не предоставляет электронные версии произведений, а занимается лишь коллекционированием и каталогизацией ссылок, присылаемых и публикуемых на форуме нашими читателями. Если вы являетесь правообладателем какого-либо представленного материала и не желаете, чтобы ссылка на него находилась в нашем каталоге, свяжитесь с нами, и мы незамедлительно удалим ее. Файлы для обмена на трекере предоставлены пользователями сайта, и администрация не несет ответственности за их содержание. Просьба не заливать файлы, защищенные авторскими правами, а также файлы нелегального содержания!