[ Сегодня идет свободное скачивание без начисления Download ]


Статистика раздачи
Нет
 
   
 
Top  
 
 
- Лучшие песни-2012 (2012.12.31) HDTV [1080i] - Режиссер / Телекомпания: Россия
Русское название: Лучшие песни-2012
Год выпуска: 2012
Жанр: Концерт
Описание:
Праздничный концерт из Государственного Кремлевского дворца.
На главной сцене страны собрались самые талантливые певцы и артисты, которые в течение всего года радовали нас своими песнями и выступлениями.
В гала-концерте принимают участие: Филипп Киркоров, Валерия, Олег Газманов, Ани Лорак, Дмитрий Маликов, "Самоцветы", Валерий Леонтьев, Леонид Агутин, Анжелика Варум, Игорь Николаев, Анастасия Повалий, Трофим, "Потап и Настя", Вячеслав Добрынин, Иосиф Кобзон и многие другие.
Ведущий: Лолита Милявская
Продолжительность: ~ 01:43:24
Видеокодек: MPEG-TS (AVC)
Битрейт видео: ~13,1 Мбит/сек
Размер кадра: 1920 x 1080
Качество видео: HDTV
Аудиокодек: MP2, 2ch.
Битрейт аудио: 224 kb/s

Треклист

01. Филипп Киркоров – Мне не жаль
02. Ани Лорак - Обними меня
03. Сосо Павлиашвили – С Новым годом
04. Валерия – Романсы
05. Леонид Агутин - Все еще вернется
06. Анжелика Варум - Нарисуй любовь
07. Потап и Настя – Чумачечая весна
08. Лайма Вайкуле - Огоньки
09. Ани Лорак и Филипп Киркоров - Гимн уходящим мечтам
10. Иосиф Кобзон - Вишнёвые розы
11. Сергей Трофимов - Не рассказывай
12. Таисия Повалий - Я помолюсь за тебя
13. Вячеслав Добрынин – Прощай
14. Леонид Агутин и Анжелика Варум – Авторское кино
15. Валерий Леонтьев - Замерзаю
16. Лолита - Я
17. Дмитрий Маликов – Прости любимая прости
18. Валерия и Александр Буйнов - Сердце
19. Александр Буйнов - Две жизни
20. ВИА Самоцветы - В реку смотрятся облака
21. Игорь Николаев - Мы совпали с тобой
22. Таисия Повалий и Сосо Павлиашвили - Песня о Москве
23. Олег Газманов - Новогодняя ночь

MediaInfo

Формат : MPEG-TS
Размер файла : 10,1 Гбайт
Продолжительность : 1 ч. 43 м.
Общий поток : 14,0 Мбит/сек
Видео
Идентификатор : 1901 (0x76D)
Идентификатор меню : 1 (0x1)
Формат : AVC
Формат/Информация : Advanced Video Codec
Профиль формата : High@L4.0
Параметр CABAC формата : Да
Параметр ReFrames формата : 3 кадра
Идентификатор кодека : 27
Продолжительность : 1 ч. 43 м.
Битрейт : 13,1 Мбит/сек
Ширина : 1920 пикселей
Высота : 1080 пикселей
Соотношение сторон : 16:9
Частота кадров : 25,000 кадров/сек
Стандарт вещания : Component
Цветовое пространство : YUV
Субдискретизация насыщенности : 4:2:0
Битовая глубина : 8 бит
Тип развёртки : Чересстрочная
Порядок развёртки : Верхнее поле первое
Бит/(Пиксели*Кадры) : 0.252
Размер потока : 9,45 Гбайт (93%)
Основные цвета : BT.709-5, BT.1361, IEC 61966-2-4, SMPTE RP177
Характеристики трансфера : BT.709-5, BT.1361
Коэффициенты матрицы : BT.709-5, BT.1361, IEC 61966-2-4 709, SMPTE RP177
Аудио
Идентификатор : 2901 (0xB55)
Идентификатор меню : 1 (0x1)
Формат : MPEG Audio
Версия формата : Version 1
Профиль формата : Layer 2
Идентификатор кодека : 3
Продолжительность : 1 ч. 43 м.
Вид битрейта : Постоянный
Битрейт : 224 Кбит/сек
Каналы : 2 канала
Частота : 48,0 КГц
Метод сжатия : С потерями
Размер потока : 166 Мбайт (2%)
Язык : English
Скриншоты:

[Цитировать]



Показать сообщения:    

Текущее время: 30-Мар 20:42

Часовой пояс: UTC + 6


Вы не можете начинать темы
Вы не можете отвечать на сообщения
Вы не можете редактировать свои сообщения
Вы не можете удалять свои сообщения
Вы не можете голосовать в опросах
Вы не можете прикреплять файлы к сообщениям
Вы не можете скачивать файлы

!ВНИМАНИЕ!
Сайт не предоставляет электронные версии произведений, а занимается лишь коллекционированием и каталогизацией ссылок, присылаемых и публикуемых на форуме нашими читателями. Если вы являетесь правообладателем какого-либо представленного материала и не желаете, чтобы ссылка на него находилась в нашем каталоге, свяжитесь с нами, и мы незамедлительно удалим ее. Файлы для обмена на трекере предоставлены пользователями сайта, и администрация не несет ответственности за их содержание. Просьба не заливать файлы, защищенные авторскими правами, а также файлы нелегального содержания!